Our friends

OMD - The Best of OMD[mp3] torrent

Torrent info

Date 2011-07-10 21:46:57
Category Music
Hash 4c411ce3d91167143fc6b206492da3636bbcd0a4
Seeds / Leechs -1 / -1 refresh
Full size 84 MB
Tracker http://tracker.thepiratebay.org/announce
Tags best
Download – OMD - The Best of OMD[mp3] Download direct – no client needed

Related torrents

Leona Lewis - Best Kept Secret (2008) dhz-employee
Dead Parrot Society - The Best of British Comedy (Monty Python)
VA - - Phat Trax Vol.3 (The Best Of Old School) @320
VA - The Best Latino Carnival In The World...Ever @320

Torrent's content info

20 seconds audio samples

18.Omd_-_La_Femme_Accident_(12'_Version)_sample.mp3
Audio file info Duration: 00:06:15.90, start: 0.000000, bitrate: 159 kb/s
Stream #0.0: Audio: mp3, 44100 Hz, 2 channels, s16, 160 kb/s
15.Omd_-_Dreaming_sample.mp3
Audio file info Duration: 00:03:53.98, start: 0.000000, bitrate: 160 kb/s
Stream #0.0: Audio: mp3, 44100 Hz, 2 channels, s16, 160 kb/s
11.Omd_-_So_In_Love_sample.mp3
Audio file info Duration: 00:03:29.66, start: 0.000000, bitrate: 160 kb/s
Stream #0.0: Audio: mp3, 44100 Hz, 2 channels, s16, 160 kb/s
16.Omd_-_Genetic_Engineering_sample.mp3
Audio file info Duration: 00:03:36.97, start: 0.000000, bitrate: 160 kb/s
Stream #0.0: Audio: mp3, 44100 Hz, 2 channels, s16, 160 kb/s

Contents of download:

84 megabyte in 18 files
OMD - The Best of OMD[mp3]
  • OMD - The Best of OMD[www.lokotorrents.com][mp3]/01.Omd_-_Electricity.mp3 (4 MB)
  • OMD - The Best of OMD[www.lokotorrents.com][mp3]/02.Omd_-_Messages.mp3 (5.4 MB)
  • OMD - The Best of OMD[www.lokotorrents.com][mp3]/03.Omd_-_Enola_Gay.mp3 (4 MB)
  • OMD - The Best of OMD[www.lokotorrents.com][mp3]/04.Omd_-_Souvenir.mp3 (4.1 MB)
  • OMD - The Best of OMD[www.lokotorrents.com][mp3]/05.Omd_-_Joan_Of_Arc.mp3 (4.3 MB)
  • OMD - The Best of OMD[www.lokotorrents.com][mp3]/06.Omd_-_Maid_Of_Orleans.mp3 (4.8 MB)
  • OMD - The Best of OMD[www.lokotorrents.com][mp3]/07.Omd_-_Telegraph.mp3 (4.2 MB)
  • OMD - The Best of OMD[www.lokotorrents.com][mp3]/08.Omd_-_Tesla_Girls.mp3 (4.1 MB)
  • OMD - The Best of OMD[www.lokotorrents.com][mp3]/09.Omd_-_Locomotion.mp3 (4.4 MB)
  • OMD - The Best of OMD[www.lokotorrents.com][mp3]/10.Omd_-_Talking_Loud_And_Clear.mp3 (4.4 MB)
  • OMD - The Best of OMD[www.lokotorrents.com][mp3]/11.Omd_-_So_In_Love.mp3 (4 MB)
  • OMD - The Best of OMD[www.lokotorrents.com][mp3]/12.Omd_-_Secret.mp3 (4.5 MB)
  • OMD - The Best of OMD[www.lokotorrents.com][mp3]/13.Omd_-_If_You_Leave.mp3 (5.1 MB)
  • OMD - The Best of OMD[www.lokotorrents.com][mp3]/14.Omd_-_Forever_Live_And_Die.mp3 (4.1 MB)
  • OMD - The Best of OMD[www.lokotorrents.com][mp3]/15.Omd_-_Dreaming.mp3 (4.5 MB)
  • OMD - The Best of OMD[www.lokotorrents.com][mp3]/16.Omd_-_Genetic_Engineering.mp3 (4.1 MB)
  • OMD - The Best of OMD[www.lokotorrents.com][mp3]/17.Omd_-_We_Love_You_(12'_Version).mp3 (7.1 MB)
  • OMD - The Best of OMD[www.lokotorrents.com][mp3]/18.Omd_-_La_Femme_Accident_(12'_Version).mp3 (7.2 MB)

Comments:


Add report or comment (250 words maximum)

I'd like:  
Type text from captcha: