Our friends

Blake Shelton - Red River Blue (2011 New Release) Album torrent

Torrent info

Date 2011-07-26 01:25:47
Category Music
Hash c60eacceff1c9747817207495712e3c56dfec87b
Seeds / Leechs -1 / -1 refresh
Full size 71 MB
Tracker http://inferno.demonoid.me:3396/scrape
Tags blake shelton river blue 2011 release album

Related torrents

The River Murders 2011 NTSC DVD5(dutch subs)NLT-Release
The River Murders(2011)DVDRip Nl subs Nlt-Release(Divx)
Blake Shelton - God Gave Me You (2011)
Code Blue (2011) DVD5 (NL gesproken) NLT-Release

Torrent's content info

20 seconds audio samples

06 - Good Ole Boys_sample.mp3
Audio file info Duration: 00:03:08.78, start: 0.000000, bitrate: 254 kb/s
Stream #0.0: Audio: mp3, 44100 Hz, 2 channels, s16, 56 kb/s
07 - Im Sorry_sample.mp3
Audio file info Duration: 00:03:29.13, start: 0.000000, bitrate: 245 kb/s
Stream #0.0: Audio: mp3, 44100 Hz, 2 channels, s16, 56 kb/s
02 - Ready To Roll_sample.mp3
Audio file info Duration: 00:03:36.55, start: 0.000000, bitrate: 247 kb/s
Stream #0.0: Audio: mp3, 44100 Hz, 2 channels, s16, 64 kb/s
01 - Honey Bee_sample.mp3
Audio file info Duration: 00:03:30.25, start: 0.000000, bitrate: 257 kb/s
Stream #0.0: Audio: mp3, 44100 Hz, 2 channels, s16, 64 kb/s

Text sample Text sample from Torrent downloaded from Demonoid.me.txt

Torrent downloaded from http://www.Demonoid.me




Contents of download:

71 megabyte in 14 files
Blake Shelton - Red River Blue (2011 New Release) Album
  • Blake Shelton - Red River Blue (2011)/03 - God Gave Me You.mp3 (7.6 MB)
  • Blake Shelton - Red River Blue (2011)/10 - Hey.mp3 (7 MB)
  • Blake Shelton - Red River Blue (2011)/04 - Get Some.mp3 (6.6 MB)
  • Blake Shelton - Red River Blue (2011)/05 - Drink On It.mp3 (6.5 MB)
  • Blake Shelton - Red River Blue (2011)/01 - Honey Bee.mp3 (6.5 MB)
  • Blake Shelton - Red River Blue (2011)/02 - Ready To Roll.mp3 (6.4 MB)
  • Blake Shelton - Red River Blue (2011)/08 - Sunny In Seattle.mp3 (6.3 MB)
  • Blake Shelton - Red River Blue (2011)/07 - Im Sorry.mp3 (6.1 MB)
  • Blake Shelton - Red River Blue (2011)/11 - Red River Blue.mp3 (5.9 MB)
  • Blake Shelton - Red River Blue (2011)/06 - Good Ole Boys.mp3 (5.7 MB)
  • Blake Shelton - Red River Blue (2011)/09 - Over.mp3 (5.6 MB)
  • Blake Shelton - Red River Blue (2011)/00-blake_shelton-red_river_blue-2011.jpg (0.3 MB)
  • Blake Shelton - Red River Blue (2011)/BONUS- eMusic Free Trial.url (0.1 KB)
  • Blake Shelton - Red River Blue (2011)/Torrent downloaded from Demonoid.me.txt (0 KB)

Comments:


Add report or comment (250 words maximum)

I'd like:  
Type text from captcha: