Our friends

John Coltrane - A Love Supreme (2002 Deluxe Edition) (FLAC) torrent

Torrent info

Date 2011-07-30 00:50:10
Category Music
Hash ece7ce5f7511606a451bc45cc83e219f99151ae6
Seeds / Leechs 4 / 0 refresh
Full size 764 MB
Tracker http://tracker.openbittorrent.com/scrape
Tags john coltrane love supreme 2002 deluxe edition flac

Related torrents

Trance 2002 2nd Edition[FLAC]
Britney Spears - Circus (UK Deluxe Edition) FLAC EAC [BY LM]
Black Sabbath - Past Lives (2002) [Deluxe Edition] [2CD] [EAC-FL
John Coltrane - A Love Supreme (2002 Deluxe Edition) (FLAC)

Torrent's content info

20 seconds audio samples

04 - Part 4 - Psalm.flac_sample.mp3
Audio file info Duration: 00:07:02.90, bitrate: 885 kb/s
Stream #0.0: Audio: flac, 44100 Hz, 2 channels, s16
02 - Part 2 - Resolution.flac_sample.mp3
Audio file info Duration: 00:07:19.45, bitrate: 998 kb/s
Stream #0.0: Audio: flac, 44100 Hz, 2 channels, s16
01 - Part 1 - Acknowledgement.flac_sample.mp3
Audio file info Duration: 00:07:42.86, bitrate: 981 kb/s
Stream #0.0: Audio: flac, 44100 Hz, 2 channels, s16
03 - Part 3 - Pursuance.flac_sample.mp3
Audio file info Duration: 00:10:42.50, bitrate: 932 kb/s
Stream #0.0: Audio: flac, 44100 Hz, 2 channels, s16

Text sample Text sample from John Coltrane - 1964 - A Love Supreme (2002 Deluxe Edition).nfo

John Coltrane - 1964 - A Love Supreme (2002 Deluxe Edition)

Total size : 764MB (801 192 971 bytes)
Last modified : 2010-08-20 17:24:09
Duration : 1:50:17.907 (291849684 samples)
Sample rate : 44100 Hz
Channels : 2
Bits per sample : 16
Avg. bitrate : 969 kbps
Codec : FLAC
Encoding : lossless
Tool : reference libFLAC 1.2.1 20070917
Embedded cuesheet : no

Release: 2002 CD Universal Distribution 589945

http://www.allmusic.com/cg/amg.dll?p=amg&sql=10:a9fyxqqaldhe




Contents of download:

764 megabyte in 15 files
John Coltrane - A Love Supreme (2002 Deluxe Edition) (FLAC)
  • John Coltrane - 1964 - A Love Supreme (2002 Deluxe Edition)/Disk 1 (Original Remastered)/01 - Part 1 - Acknowledgement.flac (54 MB)
  • John Coltrane - 1964 - A Love Supreme (2002 Deluxe Edition)/Disk 1 (Original Remastered)/02 - Part 2 - Resolution.flac (52 MB)
  • John Coltrane - 1964 - A Love Supreme (2002 Deluxe Edition)/Disk 1 (Original Remastered)/03 - Part 3 - Pursuance.flac (71 MB)
  • John Coltrane - 1964 - A Love Supreme (2002 Deluxe Edition)/Disk 1 (Original Remastered)/04 - Part 4 - Psalm.flac (45 MB)
  • John Coltrane - 1964 - A Love Supreme (2002 Deluxe Edition)/Disk 2 (Previously Unreleased Material)/01 - Introduction By Andre Francis.flac (8.1 MB)
  • John Coltrane - 1964 - A Love Supreme (2002 Deluxe Edition)/Disk 2 (Previously Unreleased Material)/02 - Part 1 - Acknowledgement (Live Version).flac (45 MB)
  • John Coltrane - 1964 - A Love Supreme (2002 Deluxe Edition)/Disk 2 (Previously Unreleased Material)/03 - Part 2 - Resolution (Live Version).flac (84 MB)
  • John Coltrane - 1964 - A Love Supreme (2002 Deluxe Edition)/Disk 2 (Previously Unreleased Material)/04 - Part 3 - Pursuance (Live Version).flac (140 MB)
  • John Coltrane - 1964 - A Love Supreme (2002 Deluxe Edition)/Disk 2 (Previously Unreleased Material)/05 - Part 4 - Psalm (Live Version).flac (60 MB)
  • John Coltrane - 1964 - A Love Supreme (2002 Deluxe Edition)/Disk 2 (Previously Unreleased Material)/06 - Part 2 - Resolution (Alternative Take).flac (55 MB)
  • John Coltrane - 1964 - A Love Supreme (2002 Deluxe Edition)/Disk 2 (Previously Unreleased Material)/07 - Part 2 - Resolution (Breakdown).flac (16 MB)
  • John Coltrane - 1964 - A Love Supreme (2002 Deluxe Edition)/Disk 2 (Previously Unreleased Material)/08 - Part 1 - Acknowledgement (Alternative Take 1).flac (63 MB)
  • John Coltrane - 1964 - A Love Supreme (2002 Deluxe Edition)/Disk 2 (Previously Unreleased Material)/09 - Part 1 - Acknowledgement (Alternative Take 2).flac (71 MB)
  • John Coltrane - 1964 - A Love Supreme (2002 Deluxe Edition)/John Coltrane - 1964 - A Love Supreme (2002 Deluxe Edition).nfo (0.5 KB)
  • John Coltrane - 1964 - A Love Supreme (2002 Deluxe Edition)/John Coltrane - 1964 - A Love Supreme (2002 Deluxe Edition).sfv (2.7 KB)

Comments:


Add report or comment (250 words maximum)

I'd like:  
Type text from captcha: