Our friends

Steen - Overige Steenwaren torrent

Torrent info

Date 2011-08-04 00:53:39
Category Music
Hash 8a8761bb488093d3da8d85237e3eb92eca0ce7bf
Seeds / Leechs -1 / -1 refresh
Full size 206 MB
Tracker http://tracker.openbittorrent.com/scrape
Tags steen overige steenwaren
Download – Steen - Overige Steenwaren Download direct – no client needed

Related torrents

HØRERØRET Rolf Wesenlund Harald H Steen mp3
! Steen - Muziek Voor Je Moeder 2008
Harry Potter Boek 1-Steen de wijzen (luisterboek mp3) NLT-Release
Harry Potter en de Steen der Wijzen (audiob) (dutch) 2Lions-Team

Torrent's content info

20 seconds audio samples

Steen - Track 16_sample.mp3
Audio file info Duration: 00:03:06.99, start: 0.000000, bitrate: 255 kb/s
Stream #0.0: Audio: mp3, 48000 Hz, 2 channels, s16, 256 kb/s
Steen; Metz - Overige Steenwaren - 12 - Welkom_sample.mp3
Audio file info Duration: 00:02:57.28, start: 0.000000, bitrate: 256 kb/s
Stream #0.0: Audio: mp3, 48000 Hz, 2 channels, s16, 256 kb/s
Steen - Overige Steenwaren - 06 - Oorlogspad_sample.mp3
Audio file info Duration: 00:03:49.12, start: 0.000000, bitrate: 256 kb/s
Stream #0.0: Audio: mp3, 48000 Hz, 2 channels, s16, 256 kb/s
Steen - Kapot Geschopt_sample.mp3
Audio file info Duration: 00:05:16.04, start: 0.000000, bitrate: 192 kb/s
Stream #0.0: Audio: mp3, 48000 Hz, 2 channels, s16, 192 kb/s

Contents of download:

206 megabyte in 32 files
Steen - Overige Steenwaren
  • Steen - Overige Steenwaren/Steen - Rock Paper Scissors.mp3 (22 MB)
  • Steen - Overige Steenwaren/Steen; Spinal - Overige Steenwaren - 17 - 101Barz Wintersessie 2010.mp3 (9.2 MB)
  • Steen - Overige Steenwaren/Steen - Overige Steenwaren - 01 - Dat Wil ik Doen Rauw(Partysquad Diss).mp3 (8.2 MB)
  • Steen - Overige Steenwaren/Steen; MP - Overige Steenwaren - 14 - Brag & Boos.mp3 (8.1 MB)
  • Steen - Overige Steenwaren/Steen; Rocks - Overige Steenwaren - 15 - Geest in mijn fles.mp3 (8 MB)
  • Steen - Overige Steenwaren/Steen - Overige Steenwaren - 02 - Dit is de shit.mp3 (7.8 MB)
  • Steen - Overige Steenwaren/Steen - De Pratende Lul.mp3 (7.4 MB)
  • Steen - Overige Steenwaren/Steen - Overige Steenwaren - 05 - Kwibus en TumTum (Kubus & BangBang diss).mp3 (7.3 MB)
  • Steen - Overige Steenwaren/Steen - Overige Steenwaren - 04 - Kanker Talent.mp3 (7.2 MB)
  • Steen - Overige Steenwaren/Steen - Kapot Geschopt.mp3 (7.2 MB)
  • Steen - Overige Steenwaren/Groepsverkrachting - Junklife ft Spinal & Steen.mp3 (7.2 MB)
  • Steen - Overige Steenwaren/Steen - Overige Steenwaren - 06 - Oorlogspad.mp3 (7 MB)
  • Steen - Overige Steenwaren/3 lijken - Matar Steen Skaffa.mp3 (6.8 MB)
  • Steen - Overige Steenwaren/Steen; Spinal - Overige Steenwaren - 16 - Haat (101Barz) .mp3 (6.6 MB)
  • Steen - Overige Steenwaren/Steen - Overige Steenwaren - 08 - 101Barz Solo Studiosessie.mp3 (6.5 MB)
  • Steen - Overige Steenwaren/Steen; Drokz - Overige Steenwaren - 09 - Terror (Pole Position).mp3 (6.3 MB)
  • Steen - Overige Steenwaren/Steen; Jahva Sound - Overige Steenwaren - 10 - Grote Top.mp3 (5.9 MB)
  • Steen - Overige Steenwaren/Steen - Overige Steenwaren - 03 - Drink d'rop tot je dronken word.mp3 (5.7 MB)
  • Steen - Overige Steenwaren/Steen - Track 16.mp3 (5.7 MB)
  • Steen - Overige Steenwaren/1 rijk 1 volk - Haak Mortier Spinal Sas ILL Material Steen.mp3 (5.6 MB)
  • Steen - Overige Steenwaren/Steen; Metz - Overige Steenwaren - 12 - Welkom.mp3 (5.4 MB)
  • Steen - Overige Steenwaren/Steen - Wifebeaters.mp3 (5.1 MB)
  • Steen - Overige Steenwaren/Steen - Angst.mp3 (5.1 MB)
  • Steen - Overige Steenwaren/Steen - Het Ritueel.mp3 (5 MB)
  • Steen - Overige Steenwaren/Steen; El Stylo; Metz - Overige Steenwaren - 13 - Geen Tijd.mp3 (5 MB)
  • Steen - Overige Steenwaren/YS Ft. Steen - Steentijd.mp3 (4.9 MB)
  • Steen - Overige Steenwaren/Steen & Polski - Je Bent Zo Mooi.mp3 (4.7 MB)
  • Steen - Overige Steenwaren/Steen; Kiezel - Overige Steenwaren - 18 - Kiezel & Steen.mp3 (4.4 MB)
  • Steen - Overige Steenwaren/Steen - Overige Steenwaren - 07 - Rapt er op los.mp3 (4.4 MB)
  • Steen - Overige Steenwaren/Steen - Hellboy.mp3 (2.8 MB)
  • Steen - Overige Steenwaren/Steen - Overige Steenwaren - 19 - Steen got FAQ-ed!l.mp3 (1.9 MB)
  • Steen - Overige Steenwaren/Steen; Kiddo Cee; Miss V; Dion Mase; Q.F. - Overige Steenwaren - 11 - Vieze Meid.mp3 (1.8 MB)

Comments:


Add report or comment (250 words maximum)

I'd like:  
Type text from captcha: