Our friends

Open Water(2003)DVDRip AC3(ENG)-DROCK torrent

Torrent info

Date 2011-08-09 07:46:51
Category Movies
Hash 03f7271c0d41948eb4427413a818b15956cd22db
Seeds / Leechs -1 / -1 refresh
Full size 715 MB
Tracker http://tracker.thepiratebay.org/announce
Tags open water 2003 dvdrip drock
Download – Open Water(2003)DVDRip AC3(ENG)-DROCK Download direct – no client needed

Related torrents

Open.Water.2003.SWESUB.DVDRip.Xvid-pirat
Открытое море / Open water (2003) DVDRip {russian}
Open Range (2003)DVDRip(Xvid)AC3 5 1(Eng)-RoCK&BlueLadyRG avi
Wrong Turn(2003)DVDRip AC3(ENG)-DROCK

Torrent's content info

Open Water.avi

Open Water(2003)DVDRip AC3(ENG)-DROCK screenshot
  • Screenshot 1
  • Screenshot 2
  • Screenshot 3
  • Screenshot 4
  • Screenshot 5
  • Screenshot 6
  • Screenshot 7
  • Screenshot 8
  • Screenshot 9

Duration: 01:03:43.64, start: 0.000000, bitrate: 1567 kb/s
Stream #0.0: Video: mpeg4, yuv420p, 496x272 [PAR 1:1 DAR 31:17], 60 tbr, 60 tbn, 60.01 tbc
Stream #0.1: Audio: mp3, 48000 Hz, 2 channels, s16, 128 kb/s

Check the movie's sound/language:

Contents of download:

715 megabyte in 1 files
Open Water(2003)DVDRip AC3(ENG)-DROCK
  • Open Water.avi (715 MB)

Comments:


Add report or comment (250 words maximum)

I'd like:  
Type text from captcha: