Our friends

Europe-Live Look At Eden-2011-BriBerY torrent

Torrent info

Date 2011-08-16 22:47:29
Category Music
Hash 8a1efd0a68ce8449583225a17cb158a977321f62
Seeds / Leechs -1 / -1 refresh
Full size 100 MB
Tracker http://tracker.thepiratebay.org/announce
Tags europe live look eden 2011 bribery
Download – Europe-Live Look At Eden-2011-BriBerY Download direct – no client needed

Related torrents

Alex Ellenger - Live at Eden (Ibiza) - 28-June-2009
Europe - Last Look At Eden - 09-2009 - Release Date September 14, 2009
Europe - Last Look At Eden (2009) MP3 {russian}
Eric Saade - Popular 1 (Live Melodifestivalen Semi 2011)

Torrent's content info

20 seconds audio samples

04-europe-scream_of_anger_(knebworth_-_sonisphere)_sample.mp3
Audio file info Duration: 00:04:40.63, start: 0.000000, bitrate: 285 kb/s
Stream #0.0: Audio: mp3, 44100 Hz, 2 channels, s16, 32 kb/s
08-europe-rock_the_night_(knebworth_-_sonisphere)_sample.mp3
Audio file info Duration: 00:06:00.64, start: 0.000000, bitrate: 264 kb/s
Stream #0.0: Audio: mp3, 44100 Hz, 2 channels, s16, 160 kb/s
01-europe-last_look_at_eden_(warsaw_poland)_sample.mp3
Audio file info Duration: 00:05:29.24, start: 0.000000, bitrate: 271 kb/s
Stream #0.0: Audio: mp3, 44100 Hz, 2 channels, s16, 32 kb/s
05-europe-no_stone_unturned_(knebworth_-_sonisphere)_sample.mp3
Audio file info Duration: 00:05:38.31, start: 0.000000, bitrate: 270 kb/s
Stream #0.0: Audio: mp3, 44100 Hz, 2 channels, s16, 160 kb/s

Text sample Text sample from 00-europe-live_look_at_eden-2011.nfo

Read full text


Contents of download:

100 megabyte in 13 files
Europe-Live Look At Eden-2011-BriBerY
  • Europe-Live_Look_At_Eden-2011-BriBerY/07-europe-seventh_sign_(stockholm_-_grona_lund).mp3 (13 MB)
  • Europe-Live_Look_At_Eden-2011-BriBerY/10-europe-the_final_countdown_(knebworth_-_sonisphere).mp3 (12 MB)
  • Europe-Live_Look_At_Eden-2011-BriBerY/08-europe-rock_the_night_(knebworth_-_sonisphere).mp3 (11 MB)
  • Europe-Live_Look_At_Eden-2011-BriBerY/05-europe-no_stone_unturned_(knebworth_-_sonisphere).mp3 (11 MB)
  • Europe-Live_Look_At_Eden-2011-BriBerY/01-europe-last_look_at_eden_(warsaw_poland).mp3 (11 MB)
  • Europe-Live_Look_At_Eden-2011-BriBerY/03-europe-superstitious_(london_roundhouse_-_itunes_festival).mp3 (10 MB)
  • Europe-Live_Look_At_Eden-2011-BriBerY/04-europe-scream_of_anger_(knebworth_-_sonisphere).mp3 (10 MB)
  • Europe-Live_Look_At_Eden-2011-BriBerY/02-europe-love_is_not_the_enemy_(london_roundhouse_-_itunes_festival).mp3 (8.3 MB)
  • Europe-Live_Look_At_Eden-2011-BriBerY/09-europe-the_beast_(knebworth_-_sonisphere).mp3 (6.9 MB)
  • Europe-Live_Look_At_Eden-2011-BriBerY/06-europe-new_love_in_town_(london_roundhouse_-_itunes_festival).mp3 (6.7 MB)
  • Europe-Live_Look_At_Eden-2011-BriBerY/00-europe-live_look_at_eden-2011.nfo (1.1 KB)
  • Europe-Live_Look_At_Eden-2011-BriBerY/00-europe-live_look_at_eden-2011.sfv (0.7 KB)
  • Europe-Live_Look_At_Eden-2011-BriBerY/00-europe-live_look_at_eden-2011.m3u (0.6 KB)

Comments:


Add report or comment (250 words maximum)

I'd like:  
Type text from captcha: