Our friends

Ed Sheeran-You Need Me I Dont Need You-(CDM)-2011-BPM torrent

Torrent info

Date 2011-08-28 19:47:54
Category Music
Hash cf7a0f165547f6b3ee3f1410e396ab4d260a4998
Seeds / Leechs -1 / -1 refresh
Full size 38 MB
Tracker http://tracker.thepiratebay.org/announce
Tags sheeran need dont need 2011

Related torrents

DJ Storm - Drank Epidemic I Dont Need No Host #2_MixFiend.com
DJ Storm - Drank Epidemic I Dont Need No Host Vol 1 (2CD)_MIXFIEND-2008
DJ Storm - I Dont Need No Host 8 (Drank Epidemic)-2008-MIXFIEND
ED SHEERAN-You Need Me, I Dont Need You MP3

Torrent's content info

20 seconds audio samples

04-ed_sheeran-you_need_me_i_dont_need_you__loadstar_remix_sample.mp3
Audio file info Duration: 00:05:00.98, start: 0.000000, bitrate: 243 kb/s
Stream #0.0: Audio: mp3, 44100 Hz, 2 channels, s16, 32 kb/s
03-ed_sheeran-you_need_me_i_dont_need_you__live_ustream_version_sample.mp3
Audio file info Duration: 00:06:51.03, start: 0.000000, bitrate: 195 kb/s
Stream #0.0: Audio: mp3, 44100 Hz, 2 channels, s16, 32 kb/s
01-ed_sheeran-you_need_me_i_dont_need_you_sample.mp3
Audio file info Duration: 00:03:40.42, start: 0.000000, bitrate: 248 kb/s
Stream #0.0: Audio: mp3, 44100 Hz, 2 channels, s16, 32 kb/s
05-ed_sheeran-you_need_me_i_dont_need_you__culprate_remix_sample.mp3
Audio file info Duration: 00:04:02.57, start: 0.000000, bitrate: 243 kb/s
Stream #0.0: Audio: mp3, 44100 Hz, 2 channels, s16, 32 kb/s

Text sample Text sample from 00-ed_sheeran-you_need_me_i_dont_need_you-(cdm)-2011.nfo



Artist: Ed Sheeran
Album : You Need Me I Dont Need You-(CDM)

Label : atlantic
Catalognr : asylum20cd
Year : 2011
Genre : Acoustic
Type : Album
Quality : avg. 235kbps / 44.1kHz / Joint-Stereo
Tracks : 05
Playtime : 22:38 min
Size : 37,3 MB
Date : 08.26.2011
Streetdate : 08.29.2011
Source : CDDA
URL : n/a

Tracklist:
01.you need me i dont need you [03:40]
02.you need me i dont need you feat wretch 32 and [03:03]
devlin
03.you need me i dont need you__live ustream version [06:51]
04.you need me i dont need you__loadstar remix [05:01]
05.you need me i dont need you__culprate remix [04:03]
-------
22:38 min

Notes:

SUPPORT THE MUSIC, SUPPORT THE LABELS.
BUY THIS RELEASE IF YOU LIKE IT!

- Suppliers/Music Rippers: e-mail us at bpm@bz.tc

- Remember to support artists or...

Read full text


Contents of download:

38 megabyte in 14 files
Ed Sheeran-You Need Me I Dont Need You-(CDM)-2011-BPM
  • James_Blunt-Dangerous-(075679966674)-WEB-2011-MonoPoly/02-james_blunt-dangerous_(firebeatz_remix).mp3 (16 MB)
  • James_Blunt-Dangerous-(075679966674)-WEB-2011-MonoPoly/01-james_blunt-dangerous_(deniz_koyu_and_johan_wedel_remix).mp3 (16 MB)
  • James_Blunt-Dangerous-(075679966674)-WEB-2011-MonoPoly/00-james_blunt-dangerous-(075679966674)-web-2011-monopoly.nfo (11.5 KB)
  • James_Blunt-Dangerous-(075679966674)-WEB-2011-MonoPoly/00-james_blunt-dangerous-(075679966674)-web-2011-monopoly.sfv (0.1 KB)
  • James_Blunt-Dangerous-(075679966674)-WEB-2011-MonoPoly/00-james_blunt-dangerous-(075679966674)-web-2011-monopoly.m3u (0.1 KB)
  • Ed_Sheeran-You_Need_Me_I_Dont_Need_You-(CDM)-2011-BPM/03-ed_sheeran-you_need_me_i_dont_need_you__live_ustream_version.mp3 (10 MB)
  • Ed_Sheeran-You_Need_Me_I_Dont_Need_You-(CDM)-2011-BPM/04-ed_sheeran-you_need_me_i_dont_need_you__loadstar_remix.mp3 (8.7 MB)
  • Ed_Sheeran-You_Need_Me_I_Dont_Need_You-(CDM)-2011-BPM/05-ed_sheeran-you_need_me_i_dont_need_you__culprate_remix.mp3 (7 MB)
  • Ed_Sheeran-You_Need_Me_I_Dont_Need_You-(CDM)-2011-BPM/01-ed_sheeran-you_need_me_i_dont_need_you.mp3 (6.5 MB)
  • Ed_Sheeran-You_Need_Me_I_Dont_Need_You-(CDM)-2011-BPM/02-ed_sheeran-you_need_me_i_dont_need_you_feat_wretch_32_and_devlin.mp3 (5.4 MB)
  • Ed_Sheeran-You_Need_Me_I_Dont_Need_You-(CDM)-2011-BPM/00-ed_sheeran-you_need_me_i_dont_need_you-(cdm)-2011.jpg (0.8 MB)
  • Ed_Sheeran-You_Need_Me_I_Dont_Need_You-(CDM)-2011-BPM/00-ed_sheeran-you_need_me_i_dont_need_you-(cdm)-2011.nfo (1 KB)
  • Ed_Sheeran-You_Need_Me_I_Dont_Need_You-(CDM)-2011-BPM/00-ed_sheeran-you_need_me_i_dont_need_you-(cdm)-2011.sfv (0.4 KB)
  • Ed_Sheeran-You_Need_Me_I_Dont_Need_You-(CDM)-2011-BPM/00-ed_sheeran-you_need_me_i_dont_need_you-(cdm)-2011.m3u (0.3 KB)

Comments:


Add report or comment (250 words maximum)

I'd like:  
Type text from captcha: