Our friends

Not Another Not Another Movie 2011 HDRip XVID AC3 HQ Hive-CM8 torrent

Torrent info

Date 2011-08-31 10:47:42
Category Movies
Hash c6e2d8a08aeb1f1b0b7ebd56198bdd24e132aaed
Seeds / Leechs -1 / -1 refresh
Full size 1424 MB
Tracker http://tracker.thepiratebay.org/announce
Tags another another movie 2011 hdrip xvid hive

Related torrents

Superheroes 2011 HDRip XVID AC3 HQ Hive-CM8
Not Another Not Another Movie 2011 DVDRip XViD DTRG
Another Happy Day 2011 DVDRip XviD-3LT0N
The Jungle Bunch The Movie 2011 BDRip XVID AC3 HQ Hive-CM8

Torrent's content info

Not.Another.Not.Another.Movie.2011.HDRip.XVID.AC3.HQ.Hive-CM8.avi

Not Another Not Another Movie 2011 HDRip XVID AC3 HQ Hive-CM8 screenshot
  • Screenshot 1
  • Screenshot 2
  • Screenshot 3
  • Screenshot 4
  • Screenshot 5
  • Screenshot 6
  • Screenshot 7
  • Screenshot 8
  • Screenshot 9

Duration: 01:39:10.77, start: 0.000000, bitrate: 1999 kb/s
Stream #0.0: Video: mpeg4, yuv420p, 720x400 [PAR 1:1 DAR 9:5], 23.98 tbr, 23.98 tbn, 23.98 tbc
Stream #0.1: Audio: ac3, 48000 Hz, stereo, s16, 192 kb/s

Check the movie's sound/language:

Text sample Text sample from Not.Another.Not.Another.Movie.2011.HDRip.XVID.AC3.HQ.Hive-CM8.nfo

[img]http://img828.imageshack.us/img828/3326/114d20.jpg[/img]


[color=blue][size=5][b]Not.Another.Not.Another.Movie.2011.HDRip.XVID.AC3.HQ.Hive-CM8[/b][/size][/color]


[b]Thx Hive

CM8 Doing It Right The First Time :D


Source: HD-Stream with Stereo Audio


Encode:
presenting first the next HQ Version of a new movie.
Found another hd-stream/webhd-dl or similar with great quality and just stereo audio again.
Did the usual,sharpness,rgb,denoise.
There is a lot of nice cast in the movie.
enjoy

Video: 720x400 @bitrate 1800 2pass
Audio: English AC3 2.0 Stereo
Sample: yes included[/b]


[url]http://www.imdb.com/title/tt1302019/[/url]


General
Complete name : Not.Another.Not.Another.Movie.2011.HDRip.XVID.AC3.HQ.Hive-CM8.avi
Format : AVI
Format/Info : Audio Video Interleave
File size : 1.38 GiB
Duration : 1h 39mn
Overall bit rate : 1 999 Kbps
Writing application : Nandub...

Read full text


Text sample Text sample from READ this before playing the Movie.txt

www.Torrenting.com - a special Tracker only for Movies.

we are the most on-time tracker around the globe, You can download releases whenever they release out by group uploaders.

no Wait Time, no Virus, Very Fast Download Speed.

Join us now at http://www.torrenting.com


Please join us and support Torrenting.com to grow faster :)


Thank you =)

Come on, Join The Legends at: http://www.Torrenting.com

www.Torrenting.com
www.Torrenting.com
www.Torrenting.com
www.Torrenting.com




Text sample Text sample from www.Torrenting.com.txt

www.Torrenting.com - a special Tracker only for Movies.

we are the most on-time tracker around the globe, You can download releases whenever they release out by group uploaders.

no Wait Time, no Virus, Very Fast Download Speed.

Join us now at http://www.torrenting.com


Please join us and support Torrenting.com to grow faster :)


Thank you =)

Come on, Join The Legends at: http://www.Torrenting.com

www.Torrenting.com
www.Torrenting.com
www.Torrenting.com
www.Torrenting.com




Contents of download:

1424 megabyte in 5 files
Not Another Not Another Movie 2011 HDRip XVID AC3 HQ Hive-CM8
  • [ www.Torrenting.com ] - Not.Another.Not.Another.Movie.2011.HDRip.XVID.AC3.HQ.Hive-CM8/Not.Another.Not.Another.Movie.2011.HDRip.XVID.AC3.HQ.Hive-CM8.avi (1418 MB)
  • [ www.Torrenting.com ] - Not.Another.Not.Another.Movie.2011.HDRip.XVID.AC3.HQ.Hive-CM8/Not.Another.Not.Another.Movie.2011.HDRip.XVID.AC3.HQ.Hive-CM8.nfo (4.2 KB)
  • [ www.Torrenting.com ] - Not.Another.Not.Another.Movie.2011.HDRip.XVID.AC3.HQ.Hive-CM8/READ this before playing the Movie.txt (0.5 KB)
  • [ www.Torrenting.com ] - Not.Another.Not.Another.Movie.2011.HDRip.XVID.AC3.HQ.Hive-CM8/sample.avi (6.2 MB)
  • [ www.Torrenting.com ] - Not.Another.Not.Another.Movie.2011.HDRip.XVID.AC3.HQ.Hive-CM8/www.Torrenting.com.txt (0.5 KB)

Comments:


Add report or comment (250 words maximum)

I'd like:  
Type text from captcha: