Our friends

Kung Fu Hustle[2004]DVDRip XviD-ExtraTorrentRG torrent

Torrent info

Date 2011-09-05 23:46:13
Category Movies
Hash 6f34c556b1fde4eff1502cda1a7de7102840a142
Seeds / Leechs 169 / 62 refresh
Full size 712 MB
Tracker http://tracker.thepiratebay.org/announce
Tags kung hustle 2004 dvdrip xvid extratorrentrg

Related torrents

The.Motorcycle.Diaries.2004.DVDRip.XviD.avi
Shall We Dance [2004] [DVDRip] [Xvid]
Kung Fu Hustle 2004 DVDRip EngSub NapisyPL
Kung Fu Hustle[2004]DVDRip XviD-ExtraTorrentRG

Torrent's content info

Kung Fu Hustle[2004]DVDRip XviD-ExtraTorrentRG.avi

Kung Fu Hustle[2004]DVDRip XviD-ExtraTorrentRG screenshot
  • Screenshot 1
  • Screenshot 2
  • Screenshot 3
  • Screenshot 4
  • Screenshot 5
  • Screenshot 6
  • Screenshot 7
  • Screenshot 8
  • Screenshot 9

Duration: 01:39:25.96, start: 0.000000, bitrate: 982 kb/s
Stream #0.0: Video: mpeg4, yuv420p, 624x256 [PAR 1:1 DAR 39:16], 23.98 tbr, 23.98 tbn, 23.98 tbc
Stream #0.1: Audio: mp3, 44100 Hz, 2 channels, s16, 112 kb/s

Check the movie's sound/language:

Text sample Text sample from KFH-ETRG.nfo

Read full text


Text sample Text sample from Torrent Seeded & Tracked by Novalayer.com.txt

"NovaLayer" offers solutions for Dedicated Servers, Seedboxes, Hosting, Domains, SSL certificates, etc.

visit - http://www.novalayer.com/index.html for more details




Text sample Text sample from Torrent downloaded from extratorrent.com.txt

Torrent downloaded from http://extratorrent.com/


The Biggest BitTorrent System




Contents of download:

712 megabyte in 8 files
Kung Fu Hustle[2004]DVDRip XviD-ExtraTorrentRG
  • Kung Fu Hustle[2004]DVDRip XviD-ExtraTorrentRG/Kung Fu Hustle[2004]DVDRip XviD-ExtraTorrentRG.avi (699 MB)
  • Kung Fu Hustle[2004]DVDRip XviD-ExtraTorrentRG/SaMple.avi (7.6 MB)
  • Kung Fu Hustle[2004]DVDRip XviD-ExtraTorrentRG/SubFiles/Kung Fu Hustle[2004]DVDRip XviD-ExtraTorrentRG.sub (5.4 MB)
  • Kung Fu Hustle[2004]DVDRip XviD-ExtraTorrentRG/SubFiles/Kung Fu Hustle[2004]DVDRip XviD-ExtraTorrentRG.idx (61.2 KB)
  • Kung Fu Hustle[2004]DVDRip XviD-ExtraTorrentRG/SubFiles/Kung Fu Hustle[2004]DVDRip XviD-ExtraTorrentRG.srt (23.2 KB)
  • Kung Fu Hustle[2004]DVDRip XviD-ExtraTorrentRG/KFH-ETRG.nfo (8.2 KB)
  • Kung Fu Hustle[2004]DVDRip XviD-ExtraTorrentRG/Torrent Seeded & Tracked by Novalayer.com.txt (0.2 KB)
  • Kung Fu Hustle[2004]DVDRip XviD-ExtraTorrentRG/Torrent downloaded from extratorrent.com.txt (0.1 KB)

Comments:


Add report or comment (250 words maximum)

I'd like:  
Type text from captcha: