Our friends

ED SHEERAN-You Need Me, I Dont Need You MP3 torrent

Torrent info

Date 2011-09-10 11:45:57
Category Music
Hash 974cf125a3a10d67eb09398936cc751437a0bf27
Seeds / Leechs 10 / 4 refresh
Full size 17 MB
Tracker http://9.rarbg.com:2710/scrape
Tags sheeran need dont need
Download – ED SHEERAN-You Need Me, I Dont Need You MP3 Download direct – no client needed

Related torrents

DJ Storm - Drank Epidemic I Dont Need No Host #2_MixFiend.com
DJ Storm - Drank Epidemic I Dont Need No Host Vol 1 (2CD)_MIXFIEND-2008
DJ Storm - I Dont Need No Host 8 (Drank Epidemic)-2008-MIXFIEND
ED SHEERAN-You Need Me, I Dont Need You MP3

Torrent's content info

20 seconds audio samples

Ed Sheeran - You Need Me I Don 39t Need You_sample.mp3
Audio file info Duration: 00:03:43.56, start: 0.000000, bitrate: 127 kb/s
Stream #0.0: Audio: mp3, 44100 Hz, 2 channels, s16, 128 kb/s
Ed Sheeran Ft. Wretch 32 & Devlin - You Need Me, I Don't Need You (Remix)_sample.mp3
Audio file info Duration: 00:03:05.69, start: 0.000000, bitrate: 320 kb/s
Stream #0.0: Audio: mp3, 44100 Hz, 2 channels, s16, 320 kb/s
Ed Sheeran - You Need Me, I Don't Need You (Gemini Remix) - DOPEHOOD.COM_sample.mp3
Audio file info Duration: 00:04:39.43, start: 0.000000, bitrate: 191 kb/s
Stream #0.0: Audio: mp3, 44100 Hz, 2 channels, s16, 192 kb/s

Contents of download:

17 megabyte in 3 files
ED SHEERAN-You Need Me, I Dont Need You MP3
  • ed sheeran/Ed Sheeran - You Need Me I Don 39t Need You.mp3 (3.4 MB)
  • ed sheeran/Ed Sheeran - You Need Me, I Don't Need You (Gemini Remix) - DOPEHOOD.COM.mp3 (6.4 MB)
  • ed sheeran/Ed Sheeran Ft. Wretch 32 & Devlin - You Need Me, I Don't Need You (Remix).mp3 (7.1 MB)

Comments:


Add report or comment (250 words maximum)

I'd like:  
Type text from captcha: