Our friends

As Good as it Gets (1997) Xvid NL subs torrent

Torrent info

Date 2011-09-11 20:47:10
Category Movies
Hash 1d27b092cbe492f6c6f62d3705f25d923ece96ea
Seeds / Leechs -1 / -1 refresh
Full size 1112 MB
Tracker http://tracker.thepiratebay.org/announce
Tags good gets 1997 xvid subs
Download – As Good as it Gets (1997) Xvid NL subs Download direct – no client needed

Related torrents

titanic 1997 Xvid NL subs NLT release
As Good As It Gets 1997 720p BluRay X264-AMIABLE [PublicHD]
As Good as It Gets 1997 BluRay 1080p AVC DTS-HD MA5 1-CHDBits
[ www.Torrenting.com ] - As.Good.As.It.Gets.1997.AC3.DVDRiP.XviD.iNTERNAL-FWS

Torrent's content info

As Good as it Gets (1997).avi

As Good as it Gets (1997)  Xvid  NL subs screenshot
  • Screenshot 1
  • Screenshot 2
  • Screenshot 3
  • Screenshot 4
  • Screenshot 5
  • Screenshot 6
  • Screenshot 7
  • Screenshot 8
  • Screenshot 9

Duration: 02:12:59.92, start: 0.000000, bitrate: 1168 kb/s
Stream #0.0: Video: mpeg4, yuv420p, 720x400 [PAR 1:1 DAR 9:5], 25 tbr, 25 tbn, 25 tbc
Stream #0.1: Audio: mp3, 48000 Hz, 2 channels, s16, 128 kb/s

Check the movie's sound/language:

Contents of download:

1112 megabyte in 2 files
As Good as it Gets (1997) Xvid NL subs
  • As Good as it Gets (1997)/As Good as it Gets (1997).avi (1111 MB)
  • As Good as it Gets (1997)/As Good As It Gets.jpg (0.7 MB)

Comments:


Add report or comment (250 words maximum)

I'd like:  
Type text from captcha: