Our friends

Opeth- Heritage- [2011]- Mp3ViLLe torrent

Torrent info

Date 2011-09-12 23:46:17
Category Music
Hash 636c61cda93b15d1c8523b303f318b2cb877f583
Seeds / Leechs 6 / 0 refresh
Full size 132 MB
Tracker http://9.rarbg.com:2710/scrape
Tags opeth heritage 2011 mp3ville
Download – Opeth- Heritage- [2011]- Mp3ViLLe Download direct – no client needed

Related torrents

Drake - Separate Lives - Bootleg [2011] - Mp3ViLLe
Opeth - Heritage (2011) [EAC-FLAC]
Opeth- Heritage- [2011]- Mp3ViLLe
Opeth - Heritage (2011)

Torrent's content info

More Collection.rar

  • More Collection/@For Free Windows Apps, Mags, Walls Visit Here!!!.url (0.2 KB)
  • More Collection/@For Free Muzic Download Visit Here!!!.url (0.2 KB)

20 seconds audio samples

08 - The Lines in My Hand_sample.mp3
Audio file info Duration: 00:03:48.78, start: 0.000000, bitrate: 325 kb/s
Stream #0.0: Audio: mp3, 44100 Hz, 2 channels, s16, 320 kb/s
02 - The Devil's Orchard_sample.mp3
Audio file info Duration: 00:06:39.69, start: 0.000000, bitrate: 322 kb/s
Stream #0.0: Audio: mp3, 44100 Hz, 2 channels, s16, 320 kb/s
09 - Folklore_sample.mp3
Audio file info Duration: 00:08:19.17, start: 0.000000, bitrate: 322 kb/s
Stream #0.0: Audio: mp3, 44100 Hz, 2 channels, s16, 320 kb/s
04 - Slither_sample.mp3
Audio file info Duration: 00:04:03.01, start: 0.000000, bitrate: 324 kb/s
Stream #0.0: Audio: mp3, 44100 Hz, 2 channels, s16, 320 kb/s

Text sample Text sample from Torrent downloaded from Demonoid.me.txt

Torrent downloaded from http://www.Demonoid.me




Text sample Text sample from @More Stuff!!!.txt

For More Downloads Visit:-

http://www.freepix4all.com/

For Free Muzic Download Visit:-

http://www.mp3ville.in/




Contents of download:

132 megabyte in 14 files
Opeth- Heritage- [2011]- Mp3ViLLe
  • Opeth- Heritage- [2011]- Mp3ViLLe/07 - Famine.mp3 (20 MB)
  • Opeth- Heritage- [2011]- Mp3ViLLe/09 - Folklore.mp3 (19 MB)
  • Opeth- Heritage- [2011]- Mp3ViLLe/06 - Haxprocess.mp3 (16 MB)
  • Opeth- Heritage- [2011]- Mp3ViLLe/03 - I Feel the Dark.mp3 (15 MB)
  • Opeth- Heritage- [2011]- Mp3ViLLe/02 - The Devil's Orchard.mp3 (15 MB)
  • Opeth- Heritage- [2011]- Mp3ViLLe/05 - Nepenthe.mp3 (13 MB)
  • Opeth- Heritage- [2011]- Mp3ViLLe/10 - Marrow of the Earth.mp3 (10 MB)
  • Opeth- Heritage- [2011]- Mp3ViLLe/04 - Slither.mp3 (9.4 MB)
  • Opeth- Heritage- [2011]- Mp3ViLLe/08 - The Lines in My Hand.mp3 (8.9 MB)
  • Opeth- Heritage- [2011]- Mp3ViLLe/01 - Heritage.mp3 (4.9 MB)
  • Opeth- Heritage- [2011]- Mp3ViLLe/Opeth - Heritage 2011 front.jpg (46.1 KB)
  • Opeth- Heritage- [2011]- Mp3ViLLe/More Collection.rar (0.7 KB)
  • Opeth- Heritage- [2011]- Mp3ViLLe/@More Stuff!!!.txt (0.1 KB)
  • Opeth- Heritage- [2011]- Mp3ViLLe/Torrent downloaded from Demonoid.me.txt (0 KB)

Comments:


Add report or comment (250 words maximum)

I'd like:  
Type text from captcha: