Our friends

Connie Smith - Long Line of Heartaches (2011/256Kbps) CDRip torrent

Torrent info

Date 2011-09-12 23:46:39
Category Music
Hash a2dbcb38d702c37f470adf51231ce68bbacbf20c
Seeds / Leechs -1 / -1 refresh
Full size 61 MB
Tracker http://tracker.istole.it/scrape
Tags connie smith long line heartaches 2011 256kbps cdrip

Related torrents

THE EAGLES[LONG ROAD OUT OF EDEN[CDRIP][320K]-JOCKTHERIPPER
Connie Smith - Just One Time (1971)
Willow Smith - 21st Century Girl [2011-Single][MJN]
Lady Antebellum - Own The Night (2011/256Kbps) CDRip

Torrent's content info

20 seconds audio samples

06-connie_smith--a_heart_like_you-oma_sample.mp3
Audio file info Duration: 00:03:10.51, start: 0.000000, bitrate: 235 kb/s
Stream #0.0: Audio: mp3, 44100 Hz, 2 channels, s16, 32 kb/s
08-connie_smith--that_makes_two_of_us-oma_sample.mp3
Audio file info Duration: 00:04:07.95, start: 0.000000, bitrate: 236 kb/s
Stream #0.0: Audio: mp3, 44100 Hz, 2 channels, s16, 32 kb/s
10-connie_smith--my_part_of_forever-oma_sample.mp3
Audio file info Duration: 00:03:04.76, start: 0.000000, bitrate: 214 kb/s
Stream #0.0: Audio: mp3, 44100 Hz, 2 channels, s16, 32 kb/s
07-connie_smith--anymore-oma_sample.mp3
Audio file info Duration: 00:02:46.50, start: 0.000000, bitrate: 239 kb/s
Stream #0.0: Audio: mp3, 44100 Hz, 2 channels, s16, 32 kb/s

Text sample Text sample from 00-connie_smith--long_line_of_heartaches-2011-oma.nfo

---------------------------------------------------------------------
Connie Smith - Long Line of Heartaches
---------------------------------------------------------------------

Artist...............: Connie Smith
Album................: Long Line of Heartaches
Genre................: Country
Source...............: CD
Year.................: 2011
Ripper...............: EAC (Secure mode) / LAME 3.92 & Asus CD-S520
Codec................: LAME 3.98
Version..............: MPEG 1 Layer III
Quality..............: Extreme, (avg. bitrate: 256kbps)
Channels.............: Joint Stereo / 44100 hz
Tags.................: ID3 v1.0, ID3 v2.3
Information..........:

Ripped by............: DOWNVILLA on 9/6/2011
Posted by............: DOWNVILLA on 9/6/2011
News Server..........: DOWNVILLA
News Group(s)........: DOWNVILLA

Included.............: NFO, M3U


---------------------------------------------------------------------
...

Read full text


Contents of download:

61 megabyte in 16 files
Connie Smith - Long Line of Heartaches (2011/256Kbps) CDRip
  • Connie_Smith--Long_Line_of_Heartaches-2011/08-connie_smith--that_makes_two_of_us-oma.mp3 (7 MB)
  • Connie_Smith--Long_Line_of_Heartaches-2011/02-connie_smith--im_not_blue-oma.mp3 (5.9 MB)
  • Connie_Smith--Long_Line_of_Heartaches-2011/11-connie_smith--blue_heartaches-oma.mp3 (5.8 MB)
  • Connie_Smith--Long_Line_of_Heartaches-2011/06-connie_smith--a_heart_like_you-oma.mp3 (5.4 MB)
  • Connie_Smith--Long_Line_of_Heartaches-2011/12-connie_smith--take_my_hand-oma.mp3 (5 MB)
  • Connie_Smith--Long_Line_of_Heartaches-2011/03-connie_smith--pain_of_a_broken_heart-oma.mp3 (4.9 MB)
  • Connie_Smith--Long_Line_of_Heartaches-2011/07-connie_smith--anymore-oma.mp3 (4.8 MB)
  • Connie_Smith--Long_Line_of_Heartaches-2011/10-connie_smith--my_part_of_forever-oma.mp3 (4.7 MB)
  • Connie_Smith--Long_Line_of_Heartaches-2011/04-connie_smith--aint_you_even_gonna_cry-oma.mp3 (4.6 MB)
  • Connie_Smith--Long_Line_of_Heartaches-2011/01-connie_smith--long_line_of_heartaches-oma.mp3 (4.5 MB)
  • Connie_Smith--Long_Line_of_Heartaches-2011/05-connie_smith--i_dont_believe_thats_how_you_feel-oma.mp3 (4.4 MB)
  • Connie_Smith--Long_Line_of_Heartaches-2011/09-connie_smith--you_and_me-oma.mp3 (4.1 MB)
  • Connie_Smith--Long_Line_of_Heartaches-2011/00.DownVilla.Com.tif (0.3 MB)
  • Connie_Smith--Long_Line_of_Heartaches-2011/00-connie_smith--long_line_of_heartaches-2011-oma.jpg (58 KB)
  • Connie_Smith--Long_Line_of_Heartaches-2011/00-connie_smith--long_line_of_heartaches-2011-oma.nfo (1.8 KB)
  • Connie_Smith--Long_Line_of_Heartaches-2011/00-connie_smith--long_line_of_heartaches-2011-oma (1).m3u (1.2 KB)

Comments:


Add report or comment (250 words maximum)

I'd like:  
Type text from captcha: