Our friends

Lady Antebellum – Own The Night- [2011]- Mp3ViLLe torrent

Torrent info

Date 2011-09-12 23:46:49
Category Music
Hash 4145c9246a45df10e20d96d89b0b025d3ebba11f
Seeds / Leechs 9 / 4 refresh
Full size 110 MB
Tracker http://9.rarbg.com:2710/scrape
Tags lady antebellum night 2011 mp3ville

Related torrents

Lady Antebellum - Own The Night [mp3-vbr-2011][trfkad]
Lady Antebellum - Own The Night 2011[mp3]
Lady Antebellum – Own The Night- [2011]- Mp3ViLLe
Lady Antebellum - Own The Night (2011/256Kbps) CDRip

Torrent's content info

More Collection.rar

  • More Collection/@For Free Muzic Download Visit Here!!!.url (0.2 KB)
  • More Collection/@For Free Windows Apps, Mags, Walls Visit Here!!!.url (0.2 KB)

20 seconds audio samples

07 - Singing Me Home_sample.mp3
Audio file info Duration: 00:03:52.54, start: 0.000000, bitrate: 320 kb/s
Stream #0.0: Audio: mp3, 44100 Hz, 2 channels, s16, 320 kb/s
02 - Just a Kiss_sample.mp3
Audio file info Duration: 00:03:39.06, start: 0.000000, bitrate: 320 kb/s
Stream #0.0: Audio: mp3, 44100 Hz, 2 channels, s16, 320 kb/s
10 - Love I've Found In You_sample.mp3
Audio file info Duration: 00:03:54.00, start: 0.000000, bitrate: 320 kb/s
Stream #0.0: Audio: mp3, 44100 Hz, 2 channels, s16, 320 kb/s
03 - Dancin' Away With My Heart_sample.mp3
Audio file info Duration: 00:03:53.19, start: 0.000000, bitrate: 320 kb/s
Stream #0.0: Audio: mp3, 44100 Hz, 2 channels, s16, 320 kb/s

Text sample Text sample from Torrent downloaded from Demonoid.me.txt

Torrent downloaded from http://www.Demonoid.me




Text sample Text sample from @More Stuff!!!.txt

For More Downloads Visit:-

http://www.freepix4all.com/

For Free Muzic Download Visit:-

http://www.mp3ville.in/




Contents of download:

110 megabyte in 16 files
Lady Antebellum – Own The Night- [2011]- Mp3ViLLe
  • Lady Antebellum – Own The Night- [2011]- Mp3ViLLe/05 - When You Were Mine.mp3 (11 MB)
  • Lady Antebellum – Own The Night- [2011]- Mp3ViLLe/11 - Somewhere Love Remains.mp3 (11 MB)
  • Lady Antebellum – Own The Night- [2011]- Mp3ViLLe/06 - Cold As Stone.mp3 (11 MB)
  • Lady Antebellum – Own The Night- [2011]- Mp3ViLLe/08 - Wanted You More.mp3 (9.2 MB)
  • Lady Antebellum – Own The Night- [2011]- Mp3ViLLe/09 - As You Turn Away.mp3 (9 MB)
  • Lady Antebellum – Own The Night- [2011]- Mp3ViLLe/10 - Love I've Found In You.mp3 (8.9 MB)
  • Lady Antebellum – Own The Night- [2011]- Mp3ViLLe/03 - Dancin' Away With My Heart.mp3 (8.9 MB)
  • Lady Antebellum – Own The Night- [2011]- Mp3ViLLe/07 - Singing Me Home.mp3 (8.9 MB)
  • Lady Antebellum – Own The Night- [2011]- Mp3ViLLe/12 - Heart Of The World.mp3 (8.5 MB)
  • Lady Antebellum – Own The Night- [2011]- Mp3ViLLe/02 - Just a Kiss.mp3 (8.4 MB)
  • Lady Antebellum – Own The Night- [2011]- Mp3ViLLe/01 - We Owned The Night.mp3 (7.6 MB)
  • Lady Antebellum – Own The Night- [2011]- Mp3ViLLe/04 - Friday Night.mp3 (6.8 MB)
  • Lady Antebellum – Own The Night- [2011]- Mp3ViLLe/Lady Antebellum – Own The Night 2011 front.jpg (67.9 KB)
  • Lady Antebellum – Own The Night- [2011]- Mp3ViLLe/More Collection.rar (0.7 KB)
  • Lady Antebellum – Own The Night- [2011]- Mp3ViLLe/@More Stuff!!!.txt (0.1 KB)
  • Lady Antebellum – Own The Night- [2011]- Mp3ViLLe/Torrent downloaded from Demonoid.me.txt (0 KB)

Comments:


Add report or comment (250 words maximum)

I'd like:  
Type text from captcha: