Our friends

George Strait Here for a Good Time torrent

Torrent info

Date 2011-09-13 11:52:21
Category Music
Hash c6f3d158777902c472612e64ad7686adef3da536
Seeds / Leechs -1 / -1 refresh
Full size 72 MB
Tracker http://pow7.com/scrape
Tags george strait here good time
Download – George Strait Here for a Good Time Download direct – no client needed

Related torrents

George Strait - A Collection (mp3)
The J.B. Horns - Funky Good Time (Anth..
42nd.CMA.03.Alan.Jackson.Good.Time.avi
Big Bill Broonzy - Whiskey And Good Time Blues

Torrent's content info

20 seconds audio samples

07-george_strait-lone_star_blues_sample.mp3
Audio file info Duration: 00:04:18.71, start: 0.000000, bitrate: 251 kb/s
Stream #0.0: Audio: mp3, 44100 Hz, 2 channels, s16, 64 kb/s
02-george_strait-drinkin_man_sample.mp3
Audio file info Duration: 00:04:27.15, start: 0.000000, bitrate: 225 kb/s
Stream #0.0: Audio: mp3, 44100 Hz, 2 channels, s16, 48 kb/s
06-george_strait-house_across_the_bay_sample.mp3
Audio file info Duration: 00:03:36.39, start: 0.000000, bitrate: 235 kb/s
Stream #0.0: Audio: mp3, 44100 Hz, 2 channels, s16, 48 kb/s
09-george_strait-three_nails_and_a_cross_sample.mp3
Audio file info Duration: 00:03:43.71, start: 0.000000, bitrate: 231 kb/s
Stream #0.0: Audio: mp3, 44100 Hz, 2 channels, s16, 48 kb/s

Contents of download:

72 megabyte in 12 files
George Strait Here for a Good Time
  • George_Strait-Here_For_A_Good_Time-2011-C4/08-george_strait-a_showmans_life_(with_special_guest_faith_hill).mp3 (8.2 MB)
  • George_Strait-Here_For_A_Good_Time-2011-C4/07-george_strait-lone_star_blues.mp3 (7.8 MB)
  • George_Strait-Here_For_A_Good_Time-2011-C4/02-george_strait-drinkin_man.mp3 (7.2 MB)
  • George_Strait-Here_For_A_Good_Time-2011-C4/01-george_strait-loves_gonna_make_it_alright.mp3 (6.8 MB)
  • George_Strait-Here_For_A_Good_Time-2011-C4/11-george_strait-ill_always_remember_you.mp3 (6.6 MB)
  • George_Strait-Here_For_A_Good_Time-2011-C4/10-george_strait-blue_marlin_blues.mp3 (6.3 MB)
  • George_Strait-Here_For_A_Good_Time-2011-C4/09-george_strait-three_nails_and_a_cross.mp3 (6.2 MB)
  • George_Strait-Here_For_A_Good_Time-2011-C4/06-george_strait-house_across_the_bay.mp3 (6.1 MB)
  • George_Strait-Here_For_A_Good_Time-2011-C4/04-george_strait-poison.mp3 (5.9 MB)
  • George_Strait-Here_For_A_Good_Time-2011-C4/05-george_strait-here_for_a_good_time.mp3 (5.4 MB)
  • George_Strait-Here_For_A_Good_Time-2011-C4/03-george_strait-shame_on_me.mp3 (4.7 MB)
  • George_Strait-Here_For_A_Good_Time-2011-C4/00-george_strait-here_for_a_good_time-2011-scan.jpg (1.3 MB)

Comments:


Add report or comment (250 words maximum)

I'd like:  
Type text from captcha: