Our friends

Lady - Own The Night - [Retail - CD - 2011] torrent

Torrent info

Date 2011-09-15 11:46:02
Category Music
Hash 770d9380ec3c969a363864d124c8f8ec595c2c6f
Seeds / Leechs 0 / 0 refresh
Full size 73 MB
Tracker http://tracker.istole.it/scrape
Tags lady night retail 2011
Download – Lady - Own The Night - [Retail - CD - 2011] Download direct – no client needed

Related torrents

WWE Monday Night RAW 2011 01 03 HDTV XviD-KYR
WWE Friday Night Smackdown 2011 01 07 XVID HDTV SAFCuk009
Sky at Night - February 2011 (UK) (Malestrom)
Lady Gaga - Marry The Night [2011Single] 2011 [love Rulz]

Torrent's content info

20 seconds audio samples

8. Wanted You More_sample.mp3
Audio file info Duration: 00:04:28.46, start: 0.000000, bitrate: 192 kb/s
Stream #0.0: Audio: mp3, 44100 Hz, 2 channels, s16, 192 kb/s
5. When You Were Mine_sample.mp3
Audio file info Duration: 00:04:23.53, start: 0.000000, bitrate: 191 kb/s
Stream #0.0: Audio: mp3, 44100 Hz, 2 channels, s16, 192 kb/s
11. Somewhere Love Remains_sample.mp3
Audio file info Duration: 00:04:24.31, start: 0.000000, bitrate: 192 kb/s
Stream #0.0: Audio: mp3, 44100 Hz, 2 channels, s16, 192 kb/s
6. Cold as Stone_sample.mp3
Audio file info Duration: 00:03:23.07, start: 0.000000, bitrate: 256 kb/s
Stream #0.0: Audio: mp3, 44100 Hz, 2 channels, s16, 256 kb/s

Text sample Text sample from CDInformation.nfo




Contents of download:

73 megabyte in 14 files
Lady - Own The Night - [Retail - CD - 2011]
  • Lady Antebellum - Own The Night - [Retail - CD - 2011]/1. We Owned the Night.mp3 (6.2 MB)
  • Lady Antebellum - Own The Night - [Retail - CD - 2011]/10. Love I've Found in You.mp3 (6 MB)
  • Lady Antebellum - Own The Night - [Retail - CD - 2011]/11. Somewhere Love Remains.mp3 (6 MB)
  • Lady Antebellum - Own The Night - [Retail - CD - 2011]/12. The Heart of the World.mp3 (6.1 MB)
  • Lady Antebellum - Own The Night - [Retail - CD - 2011]/2. Just a Kiss.mp3 (6 MB)
  • Lady Antebellum - Own The Night - [Retail - CD - 2011]/3. Dancin' Away with My Heart.mp3 (5.9 MB)
  • Lady Antebellum - Own The Night - [Retail - CD - 2011]/4. Friday Night.mp3 (6 MB)
  • Lady Antebellum - Own The Night - [Retail - CD - 2011]/5. When You Were Mine.mp3 (6 MB)
  • Lady Antebellum - Own The Night - [Retail - CD - 2011]/6. Cold as Stone.mp3 (6.2 MB)
  • Lady Antebellum - Own The Night - [Retail - CD - 2011]/7. Singing Me Home.mp3 (6 MB)
  • Lady Antebellum - Own The Night - [Retail - CD - 2011]/8. Wanted You More.mp3 (6.1 MB)
  • Lady Antebellum - Own The Night - [Retail - CD - 2011]/9. As You Turn Away.mp3 (5.9 MB)
  • Lady Antebellum - Own The Night - [Retail - CD - 2011]/CaseInsert.jpg (0.3 MB)
  • Lady Antebellum - Own The Night - [Retail - CD - 2011]/CDInformation.nfo (0.7 KB)

Comments:


Add report or comment (250 words maximum)

I'd like:  
Type text from captcha: