Our friends

Shaolin 2011 BRRip XviD-ViP3R torrent

Torrent info

Date 2011-09-18 03:46:14
Category Movies
Hash 302d71d6e5c29a8234ceba81e49a91dbda737b7b
Seeds / Leechs -1 / -1 refresh
Full size 807 MB
Tracker http://tracker.thepiratebay.org/announce
Tags shaolin 2011 brrip xvid vip3r
Download – Shaolin 2011 BRRip XviD-ViP3R Download direct – no client needed

Related torrents

Cougars Inc 2011 BRRip XviD-ViP3R
Street Wars 2011 BRRip XviD-ViP3R
Just Go With It 2011 BRRip XviD-ViP3R
Mega Python Vs Gatoroid 2011 BRRip XviD-ViP3R

Torrent's content info

Shaolin.2011.BRRip.XviD-ViP3R.avi

Shaolin 2011 BRRip XviD-ViP3R screenshot
  • Screenshot 1
  • Screenshot 2
  • Screenshot 3
  • Screenshot 4
  • Screenshot 5
  • Screenshot 6
  • Screenshot 7
  • Screenshot 8
  • Screenshot 9

Duration: 02:11:04.15, start: 0.000000, bitrate: 853 kb/s
Stream #0.0: Video: mpeg4, yuv420p, 640x272 [PAR 1:1 DAR 40:17], 23.98 tbr, 23.98 tbn, 23.98 tbc
Stream #0.1: Audio: mp3, 48000 Hz, 2 channels, s16, 128 kb/s

Check the movie's sound/language:

Text sample Text sample from READ this before playing the Movie.txt

www.Torrenting.com - a special Tracker only for Movies.

we are the most on-time tracker around the globe, You can download releases whenever they release out by group uploaders.

no Wait Time, no Virus, Very Fast Download Speed.

Join us now at http://www.torrenting.com


Please join us and support Torrenting.com to grow faster :)


Thank you =)

Come on, Join The Legends at: http://www.Torrenting.com

www.Torrenting.com
www.Torrenting.com
www.Torrenting.com
www.Torrenting.com




Text sample Text sample from Shaolin.2011.BRRip.XviD-ViP3R.nfo

Read full text


Text sample Text sample from www.Torrenting.com.txt

www.Torrenting.com - a special Tracker only for Movies.

we are the most on-time tracker around the globe, You can download releases whenever they release out by group uploaders.

no Wait Time, no Virus, Very Fast Download Speed.

Join us now at http://www.torrenting.com


Please join us and support Torrenting.com to grow faster :)


Thank you =)

Come on, Join The Legends at: http://www.Torrenting.com

www.Torrenting.com
www.Torrenting.com
www.Torrenting.com
www.Torrenting.com




Contents of download:

807 megabyte in 5 files
Shaolin 2011 BRRip XviD-ViP3R
  • [ www.Torrenting.com ] - Shaolin.2011.BRRip.XviD-ViP3R/READ this before playing the Movie.txt (0.5 KB)
  • [ www.Torrenting.com ] - Shaolin.2011.BRRip.XviD-ViP3R/Shaolin.2011.BRRip.XviD-ViP3R(Sample).avi (6.8 MB)
  • [ www.Torrenting.com ] - Shaolin.2011.BRRip.XviD-ViP3R/Shaolin.2011.BRRip.XviD-ViP3R.avi (800 MB)
  • [ www.Torrenting.com ] - Shaolin.2011.BRRip.XviD-ViP3R/Shaolin.2011.BRRip.XviD-ViP3R.nfo (2.4 KB)
  • [ www.Torrenting.com ] - Shaolin.2011.BRRip.XviD-ViP3R/www.Torrenting.com.txt (0.5 KB)

Comments:


Add report or comment (250 words maximum)

I'd like:  
Type text from captcha: