Our friends

Jestem Bogiem - Limitless *2011* [DVDRip XviD-BiDA] [Lektor PL] torrent

Torrent info

Date 2011-09-19 02:47:22
Category Movies
Hash 3fcaad5c53e8c6811881a13bc8dc37d2ec3030a8
Seeds / Leechs -1 / -1 refresh
Full size 696 MB
Tracker http://tracker.thepiratebay.org/announce
Tags jestem bogiem limitless 2011 dvdrip xvid bida lektor

Related torrents

Uczeń czarnoksieżnika - The Sorcerers Apprentice *2010* [DVDRip.XviD-BiDA] [Lektor PL]
Hall Pass *2011* [DVDRip XviD-miguel] [Lektor PL]
Piraci z Karaibów: Na nieznanych wodach - Pirates of the Caribbean: On Stranger Tides *2011* [DVDRip.XviD-BiDA] [LEKTOR PL] [AgusiQ]
Sanctum *2011* [DVDRip.XviD-BiDA] [LEKTOR PL] [AgusiQ]

Torrent's content info

Jestem Bogiem - Limitless [2011] [DVDRip.XviD-BiDA] [Lektor PL] [Arx].avi

Jestem Bogiem - Limitless *2011* [DVDRip XviD-BiDA] [Lektor PL] screenshot
  • Screenshot 1
  • Screenshot 2
  • Screenshot 3
  • Screenshot 4
  • Screenshot 5
  • Screenshot 6
  • Screenshot 7
  • Screenshot 8
  • Screenshot 9

Duration: 01:40:11.84, start: 0.000000, bitrate: 971 kb/s
Stream #0.0: Video: mpeg4, yuv420p, 640x272 [PAR 1:1 DAR 40:17], 25 tbr, 25 tbn, 25 tbc
Stream #0.1: Audio: mp3, 48000 Hz, 2 channels, s16, 128 kb/s

Check the movie's sound/language:

Text sample Text sample from INFO.txt

Read full text


Contents of download:

696 megabyte in 2 files
Jestem Bogiem - Limitless *2011* [DVDRip XviD-BiDA] [Lektor PL]
  • Jestem Bogiem - Limitless [2011] [DVDRip.XviD-BiDA] [Lektor PL] [Arx]/Jestem Bogiem - Limitless [2011] [DVDRip.XviD-BiDA] [Lektor PL] [Arx].avi (696 MB)
  • Jestem Bogiem - Limitless [2011] [DVDRip.XviD-BiDA] [Lektor PL] [Arx]/INFO.txt (3.5 KB)

Comments:


Add report or comment (250 words maximum)

I'd like:  
Type text from captcha: