Our friends

Americas Next Top Model S17E02 Ashlee Simpson PDTV XviD-FQM torrent

Torrent info

Date 2011-09-22 11:46:06
Category Series/TV Shows
Hash f63c0c78d30d3c95c7dc5ee1343533de65f2c356
Seeds / Leechs -1 / -1 refresh
Full size 359 MB
Tracker http://tracker.thepiratebay.org/announce
Tags americas next model s17e02 ashlee simpson pdtv xvid

Related torrents

Americas Next Top Model S15E11 Franca Sozzani PDTV XviD-FQM [ezt
Americas Next Top Model S16E03 Lori Goldstein PDTV XviD-FQM
Americas Next Top Model S16E06 Sonia Dara PDTV XviD-FQM [eztv]
Americas Next Top Model S16E07 Eric Daman PDTV XviD-FQM [eztv]

America’s next top model overview

Description

The leading organizer of the show and supermodel Tyra Banks and her assistants, two hilarious gay - Miss art director and photographer Jay Manuel chose thirty-five girls who sat at the desk of primary school models in Los Angeles. At the show has already had nine fights, eight make-up through her tears, seven calls a doctor because of a nervous breakdown, six failed falls on the catwalk, communicating with five plump, confident in the irresistibility of its forms, and four photo shoots in the air. "The daily photo shoots and shows, a week without food or a bad mood" - that was my idea of modeling to see this show. It turns out that it does not, and Tyra Banks proves it. "Top Model American-style" - is a lot of bright and colorful day. This show demonstrates that an ordinary girls can test their strength and try to become famous throughout the world. And it's all thanks to professional photographers, makeup artists, and the advice of experienced models. Here you can see and learn about the legends of the fashion business, such as Twiggy, you can get valuable information about your own care, and you can just laugh at the jokes of the jury.

Torrent's content info

americas.next.top.model.s17e02.pdtv.xvid-fqm.avi

Americas Next Top Model S17E02 Ashlee Simpson PDTV XviD-FQM screenshot
  • Screenshot 1
  • Screenshot 2
  • Screenshot 3
  • Screenshot 4
  • Screenshot 5
  • Screenshot 6
  • Screenshot 7
  • Screenshot 8
  • Screenshot 9

Duration: 00:40:50.30, start: 0.000000, bitrate: 1199 kb/s
Stream #0.0: Video: mpeg4, yuv420p, 512x384 [PAR 1:1 DAR 4:3], 29.97 tbr, 29.97 tbn, 29.97 tbc
Stream #0.1: Audio: mp3, 48000 Hz, 2 channels, s16, 128 kb/s

Check the movie's sound/language:

Text sample Text sample from www.Torrentday.com.txt

www.TorrentDay.com - is the Place you should be!!!!!!!!!!!!!!!!!

we are the most on-time tracker around the globe, You can download releases whenever they release out by group of uploaders.

no Wait Time, no Virus, Very Fast Download Speed.

Join us now at http://www.torrentday.com


Please join us and support TorrentDay.com to grow faster :)


Thank you =)

Come on, Join us at: http://www.Torrentday.com

www.TorrentDay.com
www.TorrentDay.com
www.TorrentDay.com
www.TorrentDay.com




Text sample Text sample from First Read This Guide.txt

www.TorrentDay.com - is the Place you should be!!!!!!!!!!!!!!!!!

we are the most on-time tracker around the globe, You can download releases whenever they release out by group of uploaders.

no Wait Time, no Virus, Very Fast Download Speed.

Join us now at http://www.torrentday.com


Please join us and support TorrentDay.com to grow faster :)


Thank you =)

Come on, Join us at: http://www.Torrentday.com

www.TorrentDay.com
www.TorrentDay.com
www.TorrentDay.com
www.TorrentDay.com




Text sample Text sample from americas.next.top.model.s17e02.pdtv.xvid-fqm.nfo

Read full text


Contents of download:

359 megabyte in 5 files
Americas Next Top Model S17E02 Ashlee Simpson PDTV XviD-FQM
  • [ www.TorrentDay.com ] - Americas.Next.Top.Model.S17E02.Ashlee.Simpson.PDTV.XviD-FQM/americas.next.top.model.s17e02.pdtv.xvid-fqm.avi (350 MB)
  • [ www.TorrentDay.com ] - Americas.Next.Top.Model.S17E02.Ashlee.Simpson.PDTV.XviD-FQM/americas.next.top.model.s17e02.pdtv.xvid-fqm.nfo (8.6 KB)
  • [ www.TorrentDay.com ] - Americas.Next.Top.Model.S17E02.Ashlee.Simpson.PDTV.XviD-FQM/First Read This Guide.txt (0.5 KB)
  • [ www.TorrentDay.com ] - Americas.Next.Top.Model.S17E02.Ashlee.Simpson.PDTV.XviD-FQM/Sample/sample-americas.next.top.model.s17e02.pdtv.xvid-fqm.avi (8.8 MB)
  • [ www.TorrentDay.com ] - Americas.Next.Top.Model.S17E02.Ashlee.Simpson.PDTV.XviD-FQM/www.Torrentday.com.txt (0.5 KB)

Comments:


Add report or comment (250 words maximum)

I'd like:  
Type text from captcha: