Our friends

The English Beat_Beat This! The Best of the Beat_2000_timesurfer torrent

Torrent info

Date 2011-09-23 23:48:15
Category Music
Hash ad881f3530f4df704264fa86c63baf6847400b83
Seeds / Leechs -1 / -1 refresh
Full size 71 MB
Tracker http://tracker.publicbt.com/scrape
Tags english beat beat this best beat 2000 timesurfer

Related torrents

Dave Brubeck - The Very Best Of (2000) [Jazz][mp3 440-677][h33t][schon55]
Best of Phil Hendrie 2000 - Best of 2000
Sarah Brightman - Very Best 1990-2000
Dirty_Beat_Avenue_-_This_World__I_Dont_Know_Why_-_7000041565_-WEB-2013-ZzZz[rarbg]

Torrent's content info

20 seconds audio samples

The (English) Beat - 07. Twist And Crawl_sample.mp3
Audio file info Duration: 00:02:35.06, start: 0.000000, bitrate: 215 kb/s
Stream #0.0: Audio: mp3, 44100 Hz, 2 channels, s16, 192 kb/s
The (English) Beat - 15. Stand Down Margaret_sample.mp3
Audio file info Duration: 00:03:38.09, start: 0.000000, bitrate: 209 kb/s
Stream #0.0: Audio: mp3, 44100 Hz, 2 channels, s16, 192 kb/s
The (English) Beat - 12. Click Click_sample.mp3
Audio file info Duration: 00:01:29.49, start: 0.000000, bitrate: 213 kb/s
Stream #0.0: Audio: mp3, 44100 Hz, 2 channels, s16, 192 kb/s
The (English) Beat - 06. I Confess_sample.mp3
Audio file info Duration: 00:04:30.60, start: 0.000000, bitrate: 210 kb/s
Stream #0.0: Audio: mp3, 44100 Hz, 2 channels, s16, 192 kb/s

Contents of download:

71 megabyte in 16 files
The English Beat_Beat This! The Best of the Beat_2000_timesurfer
  • The English Beat_Beat This! The Best of the Beat_2000_timesurfer/cover.jpg (32.1 KB)
  • The English Beat_Beat This! The Best of the Beat_2000_timesurfer/The (English) Beat - 01. Mirror In The Bathroom.mp3 (4.8 MB)
  • The English Beat_Beat This! The Best of the Beat_2000_timesurfer/The (English) Beat - 02. Best Friend.mp3 (4.5 MB)
  • The English Beat_Beat This! The Best of the Beat_2000_timesurfer/The (English) Beat - 03. Hands Off She's Mine.mp3 (4.5 MB)
  • The English Beat_Beat This! The Best of the Beat_2000_timesurfer/The (English) Beat - 04. Too Nice To Talk To.mp3 (4.8 MB)
  • The English Beat_Beat This! The Best of the Beat_2000_timesurfer/The (English) Beat - 05. Doors Of Your Heart.mp3 (5.5 MB)
  • The English Beat_Beat This! The Best of the Beat_2000_timesurfer/The (English) Beat - 06. I Confess.mp3 (6.8 MB)
  • The English Beat_Beat This! The Best of the Beat_2000_timesurfer/The (English) Beat - 07. Twist And Crawl.mp3 (4 MB)
  • The English Beat_Beat This! The Best of the Beat_2000_timesurfer/The (English) Beat - 08. Rankin Full Stop.mp3 (4.2 MB)
  • The English Beat_Beat This! The Best of the Beat_2000_timesurfer/The (English) Beat - 09. Drowning.mp3 (5.7 MB)
  • The English Beat_Beat This! The Best of the Beat_2000_timesurfer/The (English) Beat - 10. Save It For Later.mp3 (5.3 MB)
  • The English Beat_Beat This! The Best of the Beat_2000_timesurfer/The (English) Beat - 11. Sole Salvation.mp3 (4.5 MB)
  • The English Beat_Beat This! The Best of the Beat_2000_timesurfer/The (English) Beat - 12. Click Click.mp3 (2.3 MB)
  • The English Beat_Beat This! The Best of the Beat_2000_timesurfer/The (English) Beat - 13. Tears Of A Clown.mp3 (3.9 MB)
  • The English Beat_Beat This! The Best of the Beat_2000_timesurfer/The (English) Beat - 14. Can't Get Used To Losing You.mp3 (4.5 MB)
  • The English Beat_Beat This! The Best of the Beat_2000_timesurfer/The (English) Beat - 15. Stand Down Margaret.mp3 (5.4 MB)

Comments:


Add report or comment (250 words maximum)

I'd like:  
Type text from captcha: