Our friends

The Lion King 1994 BRRiP XViD AC-3-SAMURAi torrent

Torrent info

Date 2011-09-26 09:46:27
Category Movies
Hash 74e29abe1f432907b89945ce8d8b5242d81a2b2d
Seeds / Leechs -1 / -1 refresh
Full size 1263 MB
Tracker http://tracker.thepiratebay.org/announce
Tags lion king 1994 brrip xvid samurai
Download – The Lion King 1994 BRRiP XViD AC-3-SAMURAi Download direct – no client needed

Related torrents

Copy of The Lion King[1994]Special Edition DvDrip[Eng]-Stealthmaster avi
The Usual Suspects 1994 BRRip XviD-VLiS
Clerks [The First Cut].1994.BRRip.XviD.AC3[5.1]-VLiS
The Lion King 1994 BRRiP XViD AC-3-SAMURAi

Torrent's content info

The.Lion.King.1994.BRRiP.XViD.AC-3-SAMURAi.avi

The Lion King 1994 BRRiP XViD AC-3-SAMURAi screenshot
  • Screenshot 1
  • Screenshot 2
  • Screenshot 3
  • Screenshot 4
  • Screenshot 5
  • Screenshot 6
  • Screenshot 7
  • Screenshot 8
  • Screenshot 9

Duration: 01:28:23.54, start: 0.000000, bitrate: 1879 kb/s
Stream #0.0: Video: mpeg4, yuv420p, 720x400 [PAR 1:1 DAR 9:5], 23.98 tbr, 23.98 tbn, 23.98 tbc
Stream #0.1: Audio: ac3, 48000 Hz, 5.1, s16, 448 kb/s

Check the movie's sound/language:

Text sample Text sample from www.Speed.Cd.txt

Torrent Has Been Downloaded from www.Speed.Cd




Text sample Text sample from Speed.cd read me .txt

Torrent Has Been Downloaded from www.Speed.Cd




Text sample Text sample from SAMURAi.nfo

[IMG]http://lookpic.com/c1/i2/3159/9mH4vKfv.jpeg[/IMG]
The.Lion.King.1994.BRRiP.XViD-AC-3-SAMURAi
TiTLE..............[ The Lion King
YEAR...............[ 1994
GENRE..............[ Animation | Adventure | Comedy
RUNTiME............[ 89 min
iMDB RATE..........[ 8.3/10 from 187,842 users
iMDB URL...........[ http://www.imdb.com/title/tt0110357/


AUDiO..............[ 448 AC-3
LANGUAGE...........[ English
ViDEO..............[ 1,757 kbs 23.967 FPS
RESOLUTiON.........[ 720 x 400
DAR................[ 16:9
QUALiTY FRAME......[ 0.254
SUBS...............[ N/a
SiZE...............[ 1400 MB
SOURCE.............[ Bluray




PLOT OUTLiNE

Tricked into thinking he killed his father, a guilt ridden lion cub flees into exile and abandons his identity as the future...

Read full text


Contents of download:

1263 megabyte in 5 files
The Lion King 1994 BRRiP XViD AC-3-SAMURAi
  • [ www.Speed.Cd ] - The.Lion.King.1994.BRRiP.XViD.AC-3-SAMURAi/Sample.avi (75 MB)
  • [ www.Speed.Cd ] - The.Lion.King.1994.BRRiP.XViD.AC-3-SAMURAi/SAMURAi.nfo (1 KB)
  • [ www.Speed.Cd ] - The.Lion.King.1994.BRRiP.XViD.AC-3-SAMURAi/Speed.cd read me .txt (0 KB)
  • [ www.Speed.Cd ] - The.Lion.King.1994.BRRiP.XViD.AC-3-SAMURAi/The.Lion.King.1994.BRRiP.XViD.AC-3-SAMURAi.avi (1188 MB)
  • [ www.Speed.Cd ] - The.Lion.King.1994.BRRiP.XViD.AC-3-SAMURAi/www.Speed.Cd.txt (0 KB)

Comments:


Add report or comment (250 words maximum)

I'd like:  
Type text from captcha: