Our friends

The Secret Circle S01E02 iNTERNAL WEB-DL XviD-TRiC torrent

Torrent info

Date 2011-09-30 15:46:02
Category Series/TV Shows
Hash d1f0a9ec529c7ac18756db2e6246168d25566311
Seeds / Leechs -1 / -1 refresh
Full size 349 MB
Tracker http://tracker.thepiratebay.org/announce
Tags secret circle s01e02 internal xvid tric

Related torrents

Secret Girlfriend S01E02 HDTV XviD-FQM
The Secret Circle S01E02 HDTV XviD-2HD[ss]
The Secret Circle S01E02 720p HDTV x264-IMMERSE[ss]
The Secret Circle S01E04 HDTV XviD-2HD

The Secret Circle overview

Description

After the tragic death of her mother, high school student Cassie Blake moved to her grandmother in a small town Censu Harbor. It soon becomes clear that the return of Cassie in the city where was born and raised her mother, was no accident - it turns out, Cassie is hereditary witch and the young witch clan is just not enough of the sixth member to gain full strength. But why her mother never told Cassie about her and her abilities? What a tragedy 16 years ago, stripped of every member of the Secret Circle one of the parents? And those plotting the older generation of witches that survived? In Secret Circle there are many mysteries. What about actors, so they seemed to me a little differently, again comparing with the book. In this series, the producers as well as in the "Vampire Diaries" have decided slightly to change the characters appearance. The main character Cassie is not hysterical, and not a weakling, quite a culpable and can repel the same Fay. That's from Fay is just the same expected more, but can she still have time to open up as a "bitch." Adam seems to be good, but one series is not yet clear, do not open. The other characters, too, hope that will have time to open.

Torrent's content info

The.Secret.Circle.S01E02.iNTERNAL.WEB-DL.XviD-TRiC.avi

The Secret Circle S01E02 iNTERNAL WEB-DL XviD-TRiC screenshot
  • Screenshot 1
  • Screenshot 2
  • Screenshot 3
  • Screenshot 4
  • Screenshot 5
  • Screenshot 6
  • Screenshot 7
  • Screenshot 8
  • Screenshot 9

Duration: 00:42:14.37, start: 0.000000, bitrate: 1156 kb/s
Stream #0.0: Video: mpeg4, yuv420p, 624x352 [PAR 255:254 DAR 9945:5588], 23.98 tbr, 23.98 tbn, 23.98 tbc
Stream #0.1: Audio: mp3, 44100 Hz, 2 channels, s16, 128 kb/s

Check the movie's sound/language:

Contents of download:

349 megabyte in 1 files
The Secret Circle S01E02 iNTERNAL WEB-DL XviD-TRiC
  • The.Secret.Circle.S01E02.iNTERNAL.WEB-DL.XviD-TRiC.avi (349 MB)

Comments:


Add report or comment (250 words maximum)

I'd like:  
Type text from captcha: