Our friends

Beauty and the Geek AU S03E02 WS PDTV XviD-TASTETV torrent

Torrent info

Date 2011-10-01 07:46:44
Category Series/TV Shows
Hash 6e8983c062ba65d79eddeef4139a743682c792ab
Seeds / Leechs -1 / -1 refresh
Full size 362 MB
Tracker http://tracker.thepiratebay.org/announce
Tags beauty geek s03e02 pdtv xvid tastetv

Related torrents

Beauty and the Geek S05E03 PDTV XviD-STFU [eztv]
Beauty and the Geek S04E09 PDTV XviD-XOR [eztv]
Beauty.and.the.Geek.S05E08.PDTV.XviD-2HD.[eztv]
Beauty and the Geek AU S03E04 WS PDTV XviD-TASTETV

Torrent's content info

Beauty.and.the.Geek.AU.S03E02.WS.PDTV.XviD-TASTETV.avi

Beauty and the Geek AU S03E02 WS PDTV XviD-TASTETV screenshot
  • Screenshot 1
  • Screenshot 2
  • Screenshot 3
  • Screenshot 4
  • Screenshot 5
  • Screenshot 6
  • Screenshot 7
  • Screenshot 8
  • Screenshot 9

Duration: 00:47:39.36, start: 0.000000, bitrate: 1025 kb/s
Stream #0.0: Video: mpeg4, yuv420p, 640x352 [PAR 1:1 DAR 20:11], 25 tbr, 25 tbn, 25 tbc
Stream #0.1: Audio: mp3, 48000 Hz, 2 channels, s16, 128 kb/s

Check the movie's sound/language:

Text sample Text sample from www.Torrentday.com.txt

www.TorrentDay.com - is the Place you should be!!!!!!!!!!!!!!!!!

we are the most on-time tracker around the globe, You can download releases whenever they release out by group of uploaders.

no Wait Time, no Virus, Very Fast Download Speed.

Visit us at http://www.torrentday.com


Support Torrentday.com to grow faster :)


Thank you =)

http://www.Torrentday.com


www.TorrentDay.com
www.TorrentDay.com
www.TorrentDay.com
www.TorrentDay.com




Text sample Text sample from beauty.and.the.geek.au.s03e02.ws.pdtv.xvid-tastetv.nfo

Read full text


Text sample Text sample from First Read This Guide.txt

www.TorrentDay.com - is the Place you should be!!!!!!!!!!!!!!!!!

we are the most on-time tracker around the globe, You can download releases whenever they release out by group of uploaders.

no Wait Time, no Virus, Very Fast Download Speed.

Visit us at http://www.torrentday.com


Support Torrentday.com to grow faster :)


Thank you =)

http://www.Torrentday.com


www.TorrentDay.com
www.TorrentDay.com
www.TorrentDay.com
www.TorrentDay.com




Contents of download:

362 megabyte in 5 files
Beauty and the Geek AU S03E02 WS PDTV XviD-TASTETV
  • [ www.TorrentDay.com ] - Beauty.and.the.Geek.AU.S03E02.WS.PDTV.XviD-TASTETV/Beauty.and.the.Geek.AU.S03E02.WS.PDTV.XviD-TASTETV.avi (350 MB)
  • [ www.TorrentDay.com ] - Beauty.and.the.Geek.AU.S03E02.WS.PDTV.XviD-TASTETV/beauty.and.the.geek.au.s03e02.ws.pdtv.xvid-tastetv.nfo (4.6 KB)
  • [ www.TorrentDay.com ] - Beauty.and.the.Geek.AU.S03E02.WS.PDTV.XviD-TASTETV/First Read This Guide.txt (0.5 KB)
  • [ www.TorrentDay.com ] - Beauty.and.the.Geek.AU.S03E02.WS.PDTV.XviD-TASTETV/Sample/beauty.and.the.geek.au.s03e02.ws.pdtv.xvid-tastetv.sample.avi (13 MB)
  • [ www.TorrentDay.com ] - Beauty.and.the.Geek.AU.S03E02.WS.PDTV.XviD-TASTETV/www.Torrentday.com.txt (0.5 KB)

Comments:


Add report or comment (250 words maximum)

I'd like:  
Type text from captcha: