Our friends

Nikita S02E02 HDTV XviD-2HD [VTV] avi torrent

Torrent info

Date 2011-10-01 09:46:01
Category Series/TV Shows
Hash 84a960376510cc812eb21aa62af66b1dd45e23cf
Seeds / Leechs -1 / -1 refresh
Full size 350 MB
Tracker http://tracker.thepiratebay.org/announce
Tags nikita s02e02 hdtv xvid
Download – Nikita S02E02 HDTV XviD-2HD [VTV] avi Download direct – no client needed

Related torrents

Friday Night Lights S02E02 HDTV XviD-LOL [eztv]
30.Rock.S02E02.HDTV.XviD-XOR
Storm.Chasers.S02E02.HDTV.XviD-GNARLY
Nikita S02E02 HDTV XviD-2HD

Torrent's content info

Nikita.S02E02.HDTV.XviD-2HD.[VTV].avi

Nikita S02E02 HDTV XviD-2HD [VTV] avi screenshot
  • Screenshot 1
  • Screenshot 2
  • Screenshot 3
  • Screenshot 4
  • Screenshot 5
  • Screenshot 6
  • Screenshot 7
  • Screenshot 8
  • Screenshot 9

Duration: 00:41:48.09, start: 0.000000, bitrate: 1171 kb/s
Stream #0.0: Video: mpeg4, yuv420p, 624x352 [PAR 1:1 DAR 39:22], 23.98 tbr, 23.98 tbn, 23.98 tbc
Stream #0.1: Audio: mp3, 48000 Hz, 2 channels, s16, 112 kb/s

Check the movie's sound/language:

Contents of download:

350 megabyte in 1 files
Nikita S02E02 HDTV XviD-2HD [VTV] avi
  • Nikita.S02E02.HDTV.XviD-2HD.[VTV].avi (350 MB)

Comments:


Add report or comment (250 words maximum)

I'd like:  
Type text from captcha: