Our friends

Songs of Green Pheasant Songs of Green Pheasant(2005)[FLAC] torrent

Torrent info

Date 2011-10-01 13:47:06
Category Music
Hash e12a567370f4d91877d3b968f9d53b40259013ca
Seeds / Leechs -1 / -1 refresh
Full size 185 MB
Tracker http://tracker.thepiratebay.org/announce
Tags songs green pheasant songs green pheasant 2005 flac

Related torrents

Green Carnation - The Quiet Offspring 2005 Progressive
The Beatles - Songs From The Past (vol 1) (remastered) (FLAC)
Maroon 5-Songs About Jane-SPECIAL EDITION REISSUE-CD-FLAC-2005-D
Pat Green - Songs We Wish Wed Written II [2012] [FLAC]

Torrent's content info

20 seconds audio samples

06 - Until....flac_sample.mp3
Audio file info Duration: 00:02:28.25, bitrate: 661 kb/s
Stream #0.0: Audio: flac, 44100 Hz, 2 channels, s16
01 - I Am Daylights.flac_sample.mp3
Audio file info Duration: 00:03:05.33, bitrate: 685 kb/s
Stream #0.0: Audio: flac, 44100 Hz, 2 channels, s16
07 - Hey, Hey, Wilderness.flac_sample.mp3
Audio file info Duration: 00:02:13.01, bitrate: 625 kb/s
Stream #0.0: Audio: flac, 44100 Hz, 2 channels, s16
10 - From Here to Somewhere Else.flac_sample.mp3
Audio file info Duration: 00:07:49.34, bitrate: 692 kb/s
Stream #0.0: Audio: flac, 44100 Hz, 2 channels, s16

Text sample Text sample from Torrent downloaded from Demonoid.me.txt

Torrent downloaded from http://www.Demonoid.me




Contents of download:

185 megabyte in 15 files
Songs of Green Pheasant Songs of Green Pheasant(2005)[FLAC]
  • Songs of Green Pheasant...Songs of Green Pheasant(2005)[FLAC]/10 - From Here to Somewhere Else.flac (39 MB)
  • Songs of Green Pheasant...Songs of Green Pheasant(2005)[FLAC]/05 - The Wraith of Loving.flac (29 MB)
  • Songs of Green Pheasant...Songs of Green Pheasant(2005)[FLAC]/02 - Nightfall (For Boris P.).flac (25 MB)
  • Songs of Green Pheasant...Songs of Green Pheasant(2005)[FLAC]/08 - Truth but Not Fact.flac (19 MB)
  • Songs of Green Pheasant...Songs of Green Pheasant(2005)[FLAC]/01 - I Am Daylights.flac (15 MB)
  • Songs of Green Pheasant...Songs of Green Pheasant(2005)[FLAC]/03 - The Burning Man.flac (13 MB)
  • Songs of Green Pheasant...Songs of Green Pheasant(2005)[FLAC]/09 - Soldiers Kill Their Sisters.flac (12 MB)
  • Songs of Green Pheasant...Songs of Green Pheasant(2005)[FLAC]/06 - Until....flac (12 MB)
  • Songs of Green Pheasant...Songs of Green Pheasant(2005)[FLAC]/04 - Knulp.flac (10 MB)
  • Songs of Green Pheasant...Songs of Green Pheasant(2005)[FLAC]/07 - Hey, Hey, Wilderness.flac (10 MB)
  • Songs of Green Pheasant...Songs of Green Pheasant(2005)[FLAC]/Cover.png (0.9 MB)
  • Songs of Green Pheasant...Songs of Green Pheasant(2005)[FLAC]/Songs of Green Pheasant - Songs of Green Pheasant.log (5.2 KB)
  • Songs of Green Pheasant...Songs of Green Pheasant(2005)[FLAC]/Songs of Green Pheasant.cue (2.3 KB)
  • Songs of Green Pheasant...Songs of Green Pheasant(2005)[FLAC]/Songs of Green Pheasant - Songs of Green Pheasant.m3u (0.9 KB)
  • Songs of Green Pheasant...Songs of Green Pheasant(2005)[FLAC]/Torrent downloaded from Demonoid.me.txt (0 KB)

Comments:


Add report or comment (250 words maximum)

I'd like:  
Type text from captcha: