Our friends

How I Met Your Mother S07E04 HDTV XviD-LOL [VTV] avi torrent

Torrent info

Date 2011-10-04 09:46:23
Category Series/TV Shows
Hash 5d4c6da550fa6b9bd18e1a4b009cbb0092b206b3
Seeds / Leechs -1 / -1 refresh
Full size 175 MB
Tracker http://tracker.thepiratebay.org/announce
Tags your mother s07e04 hdtv xvid

Related torrents

How I Met Your Mother - How I Met Your Mother S01E04 HDTV XviD-FOV 3395460 TPB
How.I.Met.Your.Mother.S04E08.HDTV.XviD-LOLĀ©
How.I.Met.Your.Mother.S04E06.HDTV.XviD-LOL.[VTV]_SWESUB.avi
How I Met Your Mother S07E04 HDTV XviD-LOL

Torrent's content info

How.I.Met.Your.Mother.S07E04.HDTV.XviD-LOL.[VTV].avi

How I Met Your Mother S07E04 HDTV XviD-LOL [VTV] avi screenshot
  • Screenshot 1
  • Screenshot 2
  • Screenshot 3
  • Screenshot 4
  • Screenshot 5
  • Screenshot 6
  • Screenshot 7
  • Screenshot 8
  • Screenshot 9

Duration: 00:21:09.00, start: 0.000000, bitrate: 1156 kb/s
Stream #0.0: Video: mpeg4, yuv420p, 624x352 [PAR 1:1 DAR 39:22], 23.98 tbr, 23.98 tbn, 23.98 tbc
Stream #0.1: Audio: mp3, 48000 Hz, 2 channels, s16, 128 kb/s

Check the movie's sound/language:

Contents of download:

175 megabyte in 1 files
How I Met Your Mother S07E04 HDTV XviD-LOL [VTV] avi
  • How.I.Met.Your.Mother.S07E04.HDTV.XviD-LOL.[VTV].avi (175 MB)

Comments:


Add report or comment (250 words maximum)

I'd like:  
Type text from captcha: