Our friends

The Marine 2 (2009) 720p BrRip x264 - 600MB - YIFY torrent

Torrent info

Date 2011-10-04 20:46:01
Category Movies
Hash 176421af87d271dc5ee0e046e5ca9a50346790c8
Seeds / Leechs -1 / -1 refresh
Full size 601 MB
Tracker http://tracker.thepiratebay.org/announce
Tags marine 2009 720p brrip x264 600mb yify

Related torrents

Push (2009) 720p BrRip x264 - 700MB - YIFY
Stuart Little (1999) 720p BrRip x264 - 600MB - YIFY
The Road (2009) 720p BrRip x264 - 700mb - YIFY
A Christmas Carol (2009) 720p BrRip x264 - 600MB - YIFY

Torrent's content info

The.Marine.2.2009.720p.BrRip.x264.YIFY.mp4

The Marine 2 (2009) 720p BrRip x264 - 600MB - YIFY screenshot
  • Screenshot 1
  • Screenshot 2
  • Screenshot 3
  • Screenshot 4
  • Screenshot 5
  • Screenshot 6
  • Screenshot 7
  • Screenshot 8

Duration: 01:35:20.32, start: 0.000000, bitrate: 881 kb/s
Stream #0.0(und): Video: h264, yuv420p, 1280x688 [PAR 1:1 DAR 80:43], 846 kb/s, 23.98 fps, 23.98 tbr, 96k tbn, 47.95 tbc
Stream #0.1(und): Audio: aac, 48000 Hz, stereo, s16, 31 kb/s

Check the movie's sound/language:

Text sample Text sample from AhaShare.com.txt

Share the fun!!!
Torrent downloaded from AhaShare.com




Text sample Text sample from Torrent downloaded from Demonoid.com - Copy.txt

Torrent downloaded from http://www.Demonoid.com




Contents of download:

601 megabyte in 5 files
The Marine 2 (2009) 720p BrRip x264 - 600MB - YIFY
  • The Marine 2 (2009)/Other/AhaShare.com.txt (0.1 KB)
  • The Marine 2 (2009)/Other/Torrent downloaded from Demonoid.com - Copy.txt (0 KB)
  • The Marine 2 (2009)/The.Marine.2.2009.720p.BrRip.x264.YIFY.mp4 (601 MB)
  • The Marine 2 (2009)/The.Marine.2.2009.720p.BrRip.x264.YIFY.srt (57.2 KB)
  • The Marine 2 (2009)/WWW.YIFY-TORRENTS.COM.jpg (0.1 MB)

Comments:


Add report or comment (250 words maximum)

I'd like:  
Type text from captcha: