Our friends

Blessthefall Awakening (2011) torrent

Torrent info

Date 2011-10-04 20:54:18
Category Music
Hash 963f34ec504a68f26d08395b5d02fb80a882cebd
Uploader mananap007
Seeds / Leechs 3 / 0 refresh
Full size 93 MB
Tracker udp://tracker.openbittorrent.com:80/scrape
Tags blessthefall awakening 2011
Download – Blessthefall Awakening (2011) Download direct – no client needed

Related torrents

James Morrison - The Awakening - 2011 (NB320)
Blessthefall Awakening (2011)
The Awakening (2011) DVDRip DD5 1 English NL Subs
The.Awakening.2011.LIMITED.BRRip.XviD.Ac3.Feel-Free

Description

Blessthefall Awakening (2011) 1. \"Awakening\" 1:19 2. \"Promised Ones\" 3:36 3. \"Bottomfeeder\" 3:35 4. \"I\'m Bad News, In the Best Way\" 3:50 5. \"The Reign\" 4:00 6. \"40 Days...\" 4:18 7. \"Bones Crew\" 3:16 8. \"Don\'t Say Goodbye\" 3:46 9. \"Undefeated\" 3:25 10. \"\'Till the Death of Me\" 4:25 11. \"Flatline (Interlude) [12]\" 1:42 12. \"Meet Me at the Gates\" 7:22


Torrent's content info

Blessthefall - Awakening [2011].rar

  • Awakening/11. Flatline.mp3 (2.9 MB)
  • Awakening/09. Undefeated.mp3 (7.1 MB)
  • Awakening/cover.jpg (41.6 KB)
  • Awakening/06. 40 Days.mp3 (9 MB)
  • Awakening/12. Meet Me at the Gates.mp3 (17 MB)
  • Awakening/02. Promised Ones.mp3 (7.7 MB)
  • Awakening/03. Bottomfeeder.mp3 (7.6 MB)
  • Awakening/10. 'Till the Death of Me.mp3 (9.1 MB)
  • Awakening/AlbumArt_{863E5145-8F55-401C-B2DA-6E503CCE23B1}_Large.jpg (36.1 KB)
  • Awakening/Folder.jpg (36.1 KB)
  • Awakening/08. Don't Say Goodbye.mp3 (7.9 MB)
  • Awakening/07. Bones Crew.mp3 (6.8 MB)
  • Awakening/desktop.ini (0.3 KB)
  • Awakening/AlbumArt_{863E5145-8F55-401C-B2DA-6E503CCE23B1}_Small.jpg (6.7 KB)
  • Awakening/05. The Reign.mp3 (8.4 MB)
  • Awakening/AlbumArtSmall.jpg (6.7 KB)
  • Awakening/04. I'm Bad News, in the Best Way.mp3 (8 MB)
  • Awakening/01. Awakening.mp3 (2.7 MB)

20 seconds audio samples

11. Flatline_sample.mp3
Audio file info Duration: 00:01:43.00, start: 0.000000, bitrate: 233 kb/s
Stream #0.0: Audio: mp3, 44100 Hz, 2 channels, s16, 32 kb/s
12. Meet Me at the Gates_sample.mp3
Audio file info Duration: 00:12:10.33, start: 0.000000, bitrate: 197 kb/s
Stream #0.0: Audio: mp3, 44100 Hz, 2 channels, s16, 128 kb/s
09. Undefeated_sample.mp3
Audio file info Duration: 00:03:25.40, start: 0.000000, bitrate: 291 kb/s
Stream #0.0: Audio: mp3, 44100 Hz, 2 channels, s16, 32 kb/s
06. 40 Days_sample.mp3
Audio file info Duration: 00:04:18.50, start: 0.000000, bitrate: 290 kb/s
Stream #0.0: Audio: mp3, 44100 Hz, 2 channels, s16, 32 kb/s

Contents of download:

93 megabyte in 1 files
Blessthefall Awakening (2011)
  • Blessthefall - Awakening [2011].rar (93 MB)

Comments:


Add report or comment (250 words maximum)

I'd like:  
Type text from captcha: