Our friends

Dancing with the Stars US S13E05 HDTV XviD-FQM [eztv] torrent

Torrent info

Date 2011-10-05 09:46:59
Category Series/TV Shows
Hash c9c3b17cf561c1c06992fbc833ef9346cfa27ebc
Seeds / Leechs -1 / -1 refresh
Full size 700 MB
Tracker http://tracker.thepiratebay.org/announce
Tags dancing with stars s13e05 hdtv xvid eztv

Related torrents

Samantha Who S02E20 With This Ring HDTV XviD-FQM [eztv] [1416/826]
Better with You S01E14 HDTV XviD-P0W4 [eztv]
Better With You S01E15 HDTV XviD-ASAP [eztv]
Better With You S01E16 HDTV XviD-ASAP [eztv]

Torrent's content info

Dancing.with.the.Stars.US.S13E05.HDTV.XviD-FQM.avi

Dancing with the Stars US S13E05 HDTV XviD-FQM [eztv] screenshot
  • Screenshot 1
  • Screenshot 2
  • Screenshot 3
  • Screenshot 4
  • Screenshot 5
  • Screenshot 6
  • Screenshot 7
  • Screenshot 8
  • Screenshot 9

Duration: 01:26:11.71, start: 0.000000, bitrate: 1135 kb/s
Stream #0.0: Video: mpeg4, yuv420p, 624x352 [PAR 1:1 DAR 39:22], 29.97 tbr, 29.97 tbn, 29.97 tbc
Stream #0.1: Audio: mp3, 48000 Hz, 2 channels, s16, 128 kb/s

Check the movie's sound/language:

Contents of download:

700 megabyte in 1 files
Dancing with the Stars US S13E05 HDTV XviD-FQM [eztv]
  • Dancing.with.the.Stars.US.S13E05.HDTV.XviD-FQM.avi (700 MB)

Comments:


Add report or comment (250 words maximum)

I'd like:  
Type text from captcha: