Our friends

The High Cost Of Living 2010 LIMITED DVDRip XviD-IGUANA torrent

Torrent info

Date 2011-10-05 09:47:55
Category Movies
Hash 220fd6014a5c9229987be31ed103e4831c005231
Seeds / Leechs 207 / 117 refresh
Full size 704 MB
Tracker http://tracker.thepiratebay.org/announce
Tags high cost living 2010 limited dvdrip xvid iguana

Related torrents

Every Day 2010 LiMiTED DVDRiP XViD-ExtraTorrentRG
Camp Hope 2010 LiMiTED DVDRip XviD-iLG
The High Cost Of Living 2010 LIMITED DVDRip XviD-IGUANA
High School 2010 LIMITED DVDRip XviD-DEPRiVED

Torrent's content info

iguana-thcol.xvid.avi

The High Cost Of Living 2010 LIMITED DVDRip XviD-IGUANA screenshot
  • Screenshot 1
  • Screenshot 2
  • Screenshot 3
  • Screenshot 4
  • Screenshot 5
  • Screenshot 6
  • Screenshot 7
  • Screenshot 8
  • Screenshot 9

Duration: 01:37:17.50, start: 0.000000, bitrate: 1001 kb/s
Stream #0.0: Video: mpeg4, yuv420p, 624x336 [PAR 1:1 DAR 13:7], 23.98 tbr, 23.98 tbn, 23.98 tbc
Stream #0.1: Audio: mp3, 48000 Hz, 2 channels, s16, 128 kb/s

Check the movie's sound/language:

Contents of download:

704 megabyte in 3 files
The High Cost Of Living 2010 LIMITED DVDRip XviD-IGUANA
  • [UsaBit.com]_The.High.Cost.Of.Living.2010.LIMITED.DVDRip.XviD-IGUANA/Sample/iguana-thcol.xvid.sample.avi (7.1 MB)
  • [UsaBit.com]_The.High.Cost.Of.Living.2010.LIMITED.DVDRip.XviD-IGUANA/iguana-thcol.xvid.avi (697 MB)
  • [UsaBit.com]_The.High.Cost.Of.Living.2010.LIMITED.DVDRip.XviD-IGUANA/iguana-thcol.xvid.nfo (14.2 KB)

Comments:


Add report or comment (250 words maximum)

I'd like:  
Type text from captcha: