Our friends

Grave Encounters 2011 DVDRip XviD-EXViD torrent

Torrent info

Date 2011-10-05 10:46:38
Category Movies
Hash 15c3d44b742cf9cc123dac07cd036405c7b49752
Seeds / Leechs 10 / 60 refresh
Full size 713 MB
Tracker http://tracker.thepiratebay.org/announce
Tags grave encounters 2011 dvdrip xvid exvid
Download – Grave Encounters 2011 DVDRip XviD-EXViD Download direct – no client needed

Related torrents

Grave Encounters 2011 DVDSCR XviD-SiC
Grave Encounters 2011 BDRip XviD-BKZ
Grave Encounters 2011 DVDRip XviD-EXViD
Razend 2011 DVDRip XviD-EXViD

Torrent's content info

exvid-graveenc.avi

Grave Encounters 2011 DVDRip XviD-EXViD screenshot
  • Screenshot 1
  • Screenshot 2
  • Screenshot 3
  • Screenshot 4
  • Screenshot 5
  • Screenshot 6
  • Screenshot 7
  • Screenshot 8
  • Screenshot 9

Duration: 01:29:52.56, start: 0.000000, bitrate: 1088 kb/s
Stream #0.0: Video: mpeg4, yuv420p, 592x336 [PAR 1:1 DAR 37:21], 25 tbr, 25 tbn, 25 tbc
Stream #0.1: Audio: mp3, 48000 Hz, 2 channels, s16, 128 kb/s

Check the movie's sound/language:

Text sample Text sample from exvid-graveenc.nfo

Read full text


Text sample Text sample from READ this before playing the Movie.txt

www.Torrenting.com - a special Tracker only for Movies.

we are the most on-time tracker around the globe, You can download releases whenever they release out by group uploaders.

no Wait Time, no Virus, Very Fast Download Speed.

Find us at http://www.torrenting.com


Support Torrenting.com to grow faster :)


Thank you =)

Join The Legends at: http://www.Torrenting.com

www.Torrenting.com
www.Torrenting.com
www.Torrenting.com
www.Torrenting.com




Text sample Text sample from www.Torrenting.com.txt

www.Torrenting.com - a special Tracker only for Movies.

we are the most on-time tracker around the globe, You can download releases whenever they release out by group uploaders.

no Wait Time, no Virus, Very Fast Download Speed.

Find us at http://www.torrenting.com


Support Torrenting.com to grow faster :)


Thank you =)

Join The Legends at: http://www.Torrenting.com

www.Torrenting.com
www.Torrenting.com
www.Torrenting.com
www.Torrenting.com




Contents of download:

713 megabyte in 6 files
Grave Encounters 2011 DVDRip XviD-EXViD
  • [ www.Torrenting.com ] - Grave.Encounters.2011.DVDRip.XviD-EXViD/exvid-graveenc.avi (700 MB)
  • [ www.Torrenting.com ] - Grave.Encounters.2011.DVDRip.XviD-EXViD/exvid-graveenc.jpg (4.8 KB)
  • [ www.Torrenting.com ] - Grave.Encounters.2011.DVDRip.XviD-EXViD/exvid-graveenc.nfo (8 KB)
  • [ www.Torrenting.com ] - Grave.Encounters.2011.DVDRip.XviD-EXViD/READ this before playing the Movie.txt (0.5 KB)
  • [ www.Torrenting.com ] - Grave.Encounters.2011.DVDRip.XviD-EXViD/Sample/exvid-graveenc-sample.avi (13 MB)
  • [ www.Torrenting.com ] - Grave.Encounters.2011.DVDRip.XviD-EXViD/www.Torrenting.com.txt (0.5 KB)

Comments:


Add report or comment (250 words maximum)

I'd like:  
Type text from captcha: