Our friends

The Texas Chainsaw Massacre 2003 DVDRip Xvid AC3 LKRG torrent

Torrent info

Date 2011-10-10 05:46:04
Category Movies
Hash c602d00821315c287de59037d8af89cf63526804
Seeds / Leechs 729 / 134 refresh
Full size 1081 MB
Tracker http://exodus.desync.com:6969/announce
Tags texas chainsaw massacre 2003 dvdrip xvid lkrg

The Texas Chainsaw Massacre (2003) overview

Genre: horror, thriller Director: Nispel, Marcus

Description

In Texas Farm of ordinary slaughterhouse worker Thomas Hewitt the police has found 33 mutilated human bodies. Horrifying discovery shocked the people, and was named the most horrible mass murder of all time. Newspapers wrote: "House of Terror on a national scale. Massacre in Texas. " Press dubbed the killer as a "man with the face of the skin." Local authorities shot and killed a man who bore a leather mask on his face. The case was closed. But in subsequent years, a lot of murders showed that the police found the wrong culprit. Accidentally surviving witness told the real story of what really happened at an abandoned Texas Highway, when five teenagers were trapped in a mad man with a chainsaw. Horror "The Texas Chainsaw Massacre" owes its existence to Toub Hooper, for which the franchise is about cannibals family was almost the only best work in film. Now, after nearly thirty years, well-known American music video director Marcus Nispel took his version of the famous horror film. "Based on a true story" - so reads a synopsis of the film.

Description













PLOT



A group of friends passing through are stalked and hunted down by a deformed killer with a

chainsaw in order to sustain his poor family who can only afford to eat what they kill.









General Info



Encoded By .......: LKRG

Runtime ..........: 1h 38mn

File Size ........: 1.06 GB

Resolution .......: 704 x 396

IMDb URL .........: http://www.imdb.com/title/tt0324216/

Genre ............: Horror,Mystery,Thriller

Language .........: English
...


Torrent's content info

The_Texas_Chainsaw_ Massacre_BP-LKRG.avi

The Texas Chainsaw Massacre 2003 DVDRip Xvid AC3 LKRG screenshot
  • Screenshot 1
  • Screenshot 2
  • Screenshot 3
  • Screenshot 4
  • Screenshot 5
  • Screenshot 6
  • Screenshot 7
  • Screenshot 8
  • Screenshot 9

Duration: 01:38:16.09, start: 0.000000, bitrate: 1538 kb/s
Stream #0.0: Video: mpeg4, yuv420p, 704x396 [PAR 1:1 DAR 16:9], 23.98 tbr, 23.98 tbn, 23.98 tbc
Stream #0.1: Audio: ac3, 48000 Hz, 5.1, s16, 448 kb/s

Check the movie's sound/language:

Text sample Text sample from LKRG.nfo


:@@@:
+@++@#: ##
@ + @ @
@ + : '
` @ ,@@` '
: , @;@@@
: # @@.@@@' : #.
+ @ @@@.`@@@ @ #@@
+ + .@@@@. @@@@ @@@
:@@@@# @@@. .@@.
+ @@@: #,++ , : #@@
@ .++@@@:@ + .` ,@ .@` ;@ @` @+ @@@
#@@@@@@@;# @ : .@@@# '@@@' .@@@' @@@ @@@# @ @@@
...

Read full text


Contents of download:

1081 megabyte in 2 files
The Texas Chainsaw Massacre 2003 DVDRip Xvid AC3 LKRG
  • The Texas Chainsaw Massacre 2003 DVDRip Xvid AC3 LKRG/The_Texas_Chainsaw_ Massacre_BP-LKRG.avi (1081 MB)
  • The Texas Chainsaw Massacre 2003 DVDRip Xvid AC3 LKRG/LKRG.nfo (9.1 KB)

Comments:


Add report or comment (250 words maximum)

I'd like:  
Type text from captcha: