Our friends

M83 - Hurry Up, Were Dreaming [320KBPS] torrent

Torrent info

Date 2011-10-14 12:46:32
Category Music
Hash e1b228face66a5e1166c9da43cdeb71a9160e65f
Seeds / Leechs -1 / -1 refresh
Full size 173 MB
Tracker http://tracker.thepiratebay.org/announce
Tags hurry were dreaming 320kbps
Download – M83 - Hurry Up, Were Dreaming [320KBPS] Download direct – no client needed

Related torrents

Genesis - And Then There Were Three [1978] - 320kbps - high qual
Kate Bush - The Dreaming (1982)[EAC-MP3@320KBPS]
Kate Bush - The Dreaming (1982) [EAC-LAME 320kbps]
[DcTorrent com] Tribal Dreaming [2006-MP3-VBR-320Kbps]

Torrent's content info

20 seconds audio samples

22 Outro_sample.mp3
Audio file info Duration: 00:04:12.45, start: 0.000000, bitrate: 320 kb/s
Stream #0.0: Audio: mp3, 44100 Hz, 2 channels, s16, 320 kb/s
02 Midnight City_sample.mp3
Audio file info Duration: 00:04:09.40, start: 0.000000, bitrate: 320 kb/s
Stream #0.0: Audio: mp3, 44100 Hz, 2 channels, s16, 320 kb/s
08 Claudia Lewis_sample.mp3
Audio file info Duration: 00:04:37.14, start: 0.000000, bitrate: 320 kb/s
Stream #0.0: Audio: mp3, 44100 Hz, 2 channels, s16, 320 kb/s
16 Splendor_sample.mp3
Audio file info Duration: 00:05:13.00, start: 0.000000, bitrate: 320 kb/s
Stream #0.0: Audio: mp3, 44100 Hz, 2 channels, s16, 320 kb/s

Contents of download:

173 megabyte in 22 files
M83 - Hurry Up, Were Dreaming [320KBPS]
  • Hurry Up, We're Dreaming/05 Wait.mp3 (13 MB)
  • Hurry Up, We're Dreaming/01 Intro.mp3 (13 MB)
  • Hurry Up, We're Dreaming/16 Splendor.mp3 (12 MB)
  • Hurry Up, We're Dreaming/08 Claudia Lewis.mp3 (11 MB)
  • Hurry Up, We're Dreaming/13 New Map.mp3 (10 MB)
  • Hurry Up, We're Dreaming/22 Outro.mp3 (10 MB)
  • Hurry Up, We're Dreaming/06 Raconte-Moi Une Histoire.mp3 (9.5 MB)
  • Hurry Up, We're Dreaming/02 Midnight City.mp3 (9.5 MB)
  • Hurry Up, We're Dreaming/14 OK Pal.mp3 (9.3 MB)
  • Hurry Up, We're Dreaming/03 Reunion.mp3 (9.2 MB)
  • Hurry Up, We're Dreaming/19 Steve McQueen.mp3 (8.9 MB)
  • Hurry Up, We're Dreaming/20 Echoes of Mine.mp3 (8.6 MB)
  • Hurry Up, We're Dreaming/17 Year One, One UFO.mp3 (7.7 MB)
  • Hurry Up, We're Dreaming/11 Soon, My Friend.mp3 (7.4 MB)
  • Hurry Up, We're Dreaming/12 My Tears Are Becoming a Sea.mp3 (6 MB)
  • Hurry Up, We're Dreaming/09 This Bright Flash.mp3 (5.7 MB)
  • Hurry Up, We're Dreaming/15 Another Wave from You.mp3 (4.5 MB)
  • Hurry Up, We're Dreaming/04 Where the Boats Go.mp3 (4.3 MB)
  • Hurry Up, We're Dreaming/21 Klaus I Love You.mp3 (4.2 MB)
  • Hurry Up, We're Dreaming/10 When Will You Come Home_.mp3 (3.4 MB)
  • Hurry Up, We're Dreaming/18 Fountains.mp3 (3.3 MB)
  • Hurry Up, We're Dreaming/07 Train to Pluton.mp3 (3.1 MB)

Comments:


Add report or comment (250 words maximum)

I'd like:  
Type text from captcha: