Our friends

[Tntvillage.org] Simple Plan discografia [Lossy Mp3 - 320 Kbps] torrent

Torrent info

Date 2011-10-14 23:46:36
Category Music
Hash 2c07e89e8a39a60e45e46922320cc5ebcff77b5e
Seeds / Leechs 11 / 4 refresh
Full size 301 MB
Tracker http://tracker.tntvillage.scambioetico.org:2710/scrape
Tags tntvillage simple plan discografia lossy kbps

Related torrents

Simple Plan - Still Not Getting Any, [LOSSY Mp3 - 192 kbps CBR] [TnTVillage org]
Ensiferum discografia, (Lossy Mp3 320 Kbps VBR) Viking Metal
Atheist discografia, Lossy Mp3 320 Kbps Death Metal
[Tntvillage.org] Simple Plan discografia [Lossy Mp3 - 320 Kbps]

Torrent's content info

20 seconds audio samples

11 One Day_sample.mp3
Audio file info Duration: 00:03:21.90, start: 0.000000, bitrate: 320 kb/s
Stream #0.0: Audio: mp3, 44100 Hz, 2 channels, s16, 320 kb/s
05 When I'm With You_sample.mp3
Audio file info Duration: 00:02:44.24, start: 0.000000, bitrate: 320 kb/s
Stream #0.0: Audio: mp3, 44100 Hz, 2 channels, s16, 320 kb/s
02 The Worst Day Ever_sample.mp3
Audio file info Duration: 00:03:34.04, start: 0.000000, bitrate: 320 kb/s
Stream #0.0: Audio: mp3, 44100 Hz, 2 channels, s16, 320 kb/s
08 My Alien_sample.mp3
Audio file info Duration: 00:03:14.98, start: 0.000000, bitrate: 320 kb/s
Stream #0.0: Audio: mp3, 44100 Hz, 2 channels, s16, 320 kb/s

Contents of download:

301 megabyte in 42 files
[Tntvillage.org] Simple Plan discografia [Lossy Mp3 - 320 Kbps]
  • Simple Plan discografia/No Pads, No Helmets...Just Balls/12 Perfect.mp3 (11 MB)
  • Simple Plan discografia/No Pads, No Helmets...Just Balls/06 Meet You There.mp3 (10 MB)
  • Simple Plan discografia/No Pads, No Helmets...Just Balls/07 Addicted.mp3 (9.1 MB)
  • Simple Plan discografia/No Pads, No Helmets...Just Balls/02 The Worst Day Ever.mp3 (8.2 MB)
  • Simple Plan discografia/No Pads, No Helmets...Just Balls/04 I'm Just a Kid.mp3 (7.8 MB)
  • Simple Plan discografia/No Pads, No Helmets...Just Balls/01 I'd Do Anything.mp3 (7.8 MB)
  • Simple Plan discografia/No Pads, No Helmets...Just Balls/11 One Day.mp3 (7.7 MB)
  • Simple Plan discografia/No Pads, No Helmets...Just Balls/10 I Won't Be There.mp3 (7.5 MB)
  • Simple Plan discografia/No Pads, No Helmets...Just Balls/08 My Alien.mp3 (7.4 MB)
  • Simple Plan discografia/No Pads, No Helmets...Just Balls/09 God Must Hate Me.mp3 (6.5 MB)
  • Simple Plan discografia/No Pads, No Helmets...Just Balls/05 When I'm With You.mp3 (6.3 MB)
  • Simple Plan discografia/No Pads, No Helmets...Just Balls/03 You Don't Mean Anything.mp3 (5.9 MB)
  • Simple Plan discografia/No Pads, No Helmets...Just Balls/img086.jpg (0.3 MB)
  • Simple Plan discografia/Simple Plan/11 What If.mp3 (14 MB)
  • Simple Plan discografia/Simple Plan/09 Holding On.mp3 (12 MB)
  • Simple Plan discografia/Simple Plan/08 I Can Wait Forever.mp3 (11 MB)
  • Simple Plan discografia/Simple Plan/02 Take My Hand.mp3 (9 MB)
  • Simple Plan discografia/Simple Plan/01 When I'm Gone.mp3 (8.8 MB)
  • Simple Plan discografia/Simple Plan/05 Save You.mp3 (8.8 MB)
  • Simple Plan discografia/Simple Plan/04 Your Love Is A Lie.mp3 (8.6 MB)
  • Simple Plan discografia/Simple Plan/13 When I'm Gone [Acoustic].mp3 (8.1 MB)
  • Simple Plan discografia/Simple Plan/03 The End.mp3 (7.9 MB)
  • Simple Plan discografia/Simple Plan/12 Running Out Of Time.mp3 (7.7 MB)
  • Simple Plan discografia/Simple Plan/10 No Love.mp3 (7.6 MB)
  • Simple Plan discografia/Simple Plan/06 Generation.mp3 (7.1 MB)
  • Simple Plan discografia/Simple Plan/07 Time To Say Goodbye.mp3 (6.8 MB)
  • Simple Plan discografia/Simple Plan/Simple Plan-Simple Plan [LE] [Front Alternative].jpg (0.2 MB)
  • Simple Plan discografia/Simple Plan/Simple Plan-Simple Plan [LE] [Front].jpg (0.2 MB)
  • Simple Plan discografia/Still Not Getting Any/08 Everytime.mp3 (9.3 MB)
  • Simple Plan discografia/Still Not Getting Any/11 [Untitled].mp3 (9.2 MB)
  • Simple Plan discografia/Still Not Getting Any/03 Perfect World.mp3 (8.9 MB)
  • Simple Plan discografia/Still Not Getting Any/06 Crazy.mp3 (8.4 MB)
  • Simple Plan discografia/Still Not Getting Any/09 Promise.mp3 (8.2 MB)
  • Simple Plan discografia/Still Not Getting Any/02 Welcome to My Life.mp3 (7.8 MB)
  • Simple Plan discografia/Still Not Getting Any/10 One.mp3 (7.8 MB)
  • Simple Plan discografia/Still Not Getting Any/05 Me Against the World.mp3 (7.4 MB)
  • Simple Plan discografia/Still Not Getting Any/07 Jump.mp3 (7.3 MB)
  • Simple Plan discografia/Still Not Getting Any/01 Shut Up!.mp3 (7 MB)
  • Simple Plan discografia/Still Not Getting Any/04 Thank You.mp3 (6.7 MB)
  • Simple Plan discografia/Still Not Getting Any/cover1_big.jpg (86.8 KB)
  • Simple Plan discografia/Still Not Getting Any/cover3_big.jpg (85.7 KB)
  • Simple Plan discografia/Still Not Getting Any/cover2_big.jpg (83.1 KB)

Comments:


Add report or comment (250 words maximum)

I'd like:  
Type text from captcha: