Our friends

Ne-Yo Champagne Life torrent

Torrent info

Date 2011-10-14 23:48:33
Category Music
Hash 788c5b39cba8506246d56af2db1ec20a1114b8d2
Seeds / Leechs -1 / -1 refresh
Full size 87 MB
Tracker http://tracker.openbittorrent.com/scrape
Tags champagne life
Download – Ne-Yo Champagne Life Download direct – no client needed

Related torrents

Use Positive Thinking To Change Your Life
Tiesto - maicky Club Life 059 - 16-05-2008 zip
Earl Klugh - The Spice Of Life (2008) [VBR HQ mp3s]
NE-YO - Beautiful Monster and Champagne Life (KingPinVideos)

Torrent's content info

20 seconds audio samples

10 - Impossible_sample.mp3
Audio file info Duration: 00:03:35.95, start: 0.000000, bitrate: 192 kb/s
Stream #0.0: Audio: mp3, 44100 Hz, 2 channels, s16, 192 kb/s
06 - Man Of The House_sample.mp3
Audio file info Duration: 00:03:20.59, start: 0.000000, bitrate: 192 kb/s
Stream #0.0: Audio: mp3, 44100 Hz, 2 channels, s16, 192 kb/s
04 - You Got Me Open ft Cassidy_sample.mp3
Audio file info Duration: 00:03:01.28, start: 0.000000, bitrate: 192 kb/s
Stream #0.0: Audio: mp3, 44100 Hz, 2 channels, s16, 192 kb/s
11 - Rock With You_sample.mp3
Audio file info Duration: 00:04:04.63, start: 0.000000, bitrate: 191 kb/s
Stream #0.0: Audio: mp3, 44100 Hz, 2 channels, s16, 192 kb/s

Contents of download:

87 megabyte in 18 files
Ne-Yo Champagne Life
  • Ne-Yo - Champagne Life/01 - Champagne Life.mp3 (5.9 MB)
  • Ne-Yo - Champagne Life/02 - Like A Mack.mp3 (3.2 MB)
  • Ne-Yo - Champagne Life/03 - Forbidden Fruit.mp3 (5.1 MB)
  • Ne-Yo - Champagne Life/04 - You Got Me Open ft Cassidy.mp3 (4.1 MB)
  • Ne-Yo - Champagne Life/05 - Drinks Up.mp3 (4.8 MB)
  • Ne-Yo - Champagne Life/06 - Man Of The House.mp3 (4.6 MB)
  • Ne-Yo - Champagne Life/07 - Chillin.mp3 (5.7 MB)
  • Ne-Yo - Champagne Life/08 - Super High ft Rick Ross.mp3 (5.1 MB)
  • Ne-Yo - Champagne Life/09 - Halo.mp3 (5 MB)
  • Ne-Yo - Champagne Life/10 - Impossible.mp3 (4.9 MB)
  • Ne-Yo - Champagne Life/11 - Rock With You.mp3 (5.6 MB)
  • Ne-Yo - Champagne Life/12 - Im Not An Idiot.mp3 (5.4 MB)
  • Ne-Yo - Champagne Life/13 - Beautiful Monster.mp3 (5.6 MB)
  • Ne-Yo - Champagne Life/14 - Heroes.mp3 (5.7 MB)
  • Ne-Yo - Champagne Life/15 - When Youre Low.mp3 (4.6 MB)
  • Ne-Yo - Champagne Life/16 - Im You.mp3 (6.3 MB)
  • Ne-Yo - Champagne Life/17 - Im Sorry.mp3 (5.1 MB)
  • Ne-Yo - Champagne Life/champagnelife.jpg (60.4 KB)

Comments:


Add report or comment (250 words maximum)

I'd like:  
Type text from captcha: