Our friends

Noel Gallaghers : High Flying Birds Album torrent

Torrent info

Date 2011-10-16 11:46:18
Category Music
Hash 98e5f54a38329e59eea1a37598201127cb5b0f80
Seeds / Leechs 89 / 9 refresh
Full size 98 MB
Tracker http://pow7.com/scrape
Tags noel gallaghers high flying birds album
Download – Noel Gallaghers : High Flying Birds Album Download direct – no client needed

Related torrents

Noel Gallaghers : High Flying Birds Album
Noel Gallagher Noel Gallaghers High Flying Birds (2011)WebRip
Noel Gallaghers High Flying Birds (Deluxe Version) [theLEAK]
Noel Gallagher039s High Flying Birds Songs From The Great White North [EP 2012]

Noel Gallagher's High Flying Birds, Noel Gallagher's High Flying Birds overview

Description

Torrent's content info

20 seconds audio samples

Everbody is On The Run_sample.mp3
Audio file info Duration: 00:05:32.04, start: 0.000000, bitrate: 320 kb/s
Stream #0.0: Audio: mp3, 44100 Hz, 2 channels, s16, 320 kb/s
Broken Arrow_sample.mp3
Audio file info Duration: 00:03:36.03, start: 0.000000, bitrate: 320 kb/s
Stream #0.0: Audio: mp3, 44100 Hz, 2 channels, s16, 320 kb/s
Wrong Beach_sample.mp3
Audio file info Duration: 00:04:03.07, start: 0.000000, bitrate: 320 kb/s
Stream #0.0: Audio: mp3, 44100 Hz, 2 channels, s16, 320 kb/s
Death Of you And Me_sample.mp3
Audio file info Duration: 00:03:29.94, start: 0.000000, bitrate: 320 kb/s
Stream #0.0: Audio: mp3, 44100 Hz, 2 channels, s16, 320 kb/s

Contents of download:

98 megabyte in 10 files
Noel Gallaghers : High Flying Birds Album
  • Noel Gallagher's High Flying Birds/AKA … What A Life.mp3 (10 MB)
  • Noel Gallagher's High Flying Birds/Broken Arrow.mp3 (8.2 MB)
  • Noel Gallagher's High Flying Birds/Death Of you And Me.mp3 (8 MB)
  • Noel Gallagher's High Flying Birds/Dream On.mp3 (10 MB)
  • Noel Gallagher's High Flying Birds/Everbody is On The Run.mp3 (13 MB)
  • Noel Gallagher's High Flying Birds/I Wanna Live In A Dream.mp3 (10 MB)
  • Noel Gallagher's High Flying Birds/If I Had A Gun.mp3 (9.5 MB)
  • Noel Gallagher's High Flying Birds/Soilder Boys And Jesus Freaks.mp3 (7.7 MB)
  • Noel Gallagher's High Flying Birds/Stop The Clocks.mp3 (12 MB)
  • Noel Gallagher's High Flying Birds/Wrong Beach.mp3 (9.3 MB)

Comments:


Add report or comment (250 words maximum)

I'd like:  
Type text from captcha: