Our friends

Vanilla Fudge - The Beat Goes On 1968 torrent

Torrent info

Date 2011-10-16 15:46:20
Category Music
Hash 09cf2bb9ad14081065c1467cf9e1d0cb020c279b
Seeds / Leechs -1 / -1 refresh
Full size 212 MB
Tracker http://tracker.thepiratebay.org/announce
Tags vanilla fudge beat goes 1968
Download – Vanilla Fudge - The Beat Goes On 1968 Download direct – no client needed

Related torrents

Scooter - And The Beat Goes On Nlt Release
Vanilla Fudge-Out Through the In Door-2007
Vanilla Fudge Rockpalast 2004 SVCD
Vanilla Fudge - Renaissance (1968)

Torrent's content info

20 seconds audio samples

05 Fur Elise-Moonlight Sonata.flac_sample.mp3
Audio file info Duration: 00:06:37.47, bitrate: 693 kb/s
Stream #0.0: Audio: flac, 44100 Hz, 2 channels, s16
04 The Beat Goes On.flac_sample.mp3
Audio file info Duration: 00:01:38.22, bitrate: 757 kb/s
Stream #0.0: Audio: flac, 44100 Hz, 2 channels, s16
03 Phase 1- Eighteenth Century- Variations on a Theme by Mozart, Divertime.flac_sample.mp3
Audio file info Duration: 00:06:59.84, bitrate: 742 kb/s
Stream #0.0: Audio: flac, 44100 Hz, 2 channels, s16
02 Intro- The Beat Goes On.flac_sample.mp3
Audio file info Duration: 00:01:59.22, bitrate: 768 kb/s
Stream #0.0: Audio: flac, 44100 Hz, 2 channels, s16

Text sample Text sample from Vanilla Fudge-The Beat Goes On.txt

Read full text


Contents of download:

212 megabyte in 13 files
Vanilla Fudge - The Beat Goes On 1968
  • Vanilla Fudge - The Beat Goes On 1968/01 Sketch.flac (13 MB)
  • Vanilla Fudge - The Beat Goes On 1968/02 Intro- The Beat Goes On.flac (11 MB)
  • Vanilla Fudge - The Beat Goes On 1968/03 Phase 1- Eighteenth Century- Variations on a Theme by Mozart, Divertime.flac (37 MB)
  • Vanilla Fudge - The Beat Goes On 1968/04 The Beat Goes On.flac (8.9 MB)
  • Vanilla Fudge - The Beat Goes On 1968/05 Fur Elise-Moonlight Sonata.flac (33 MB)
  • Vanilla Fudge - The Beat Goes On 1968/06 The Beat Goes On.flac (5.3 MB)
  • Vanilla Fudge - The Beat Goes On 1968/07 The Beat Goes On.flac (5.2 MB)
  • Vanilla Fudge - The Beat Goes On 1968/08 Voices in Time.flac (35 MB)
  • Vanilla Fudge - The Beat Goes On 1968/09 The Beat Goes On.flac (5.1 MB)
  • Vanilla Fudge - The Beat Goes On 1968/10 Merchant.flac (46 MB)
  • Vanilla Fudge - The Beat Goes On 1968/11 The Beat Goes On.flac (12 MB)
  • Vanilla Fudge - The Beat Goes On 1968/Vanilla Fudge - .jpg (26.4 KB)
  • Vanilla Fudge - The Beat Goes On 1968/Vanilla Fudge-The Beat Goes On.txt (1.2 KB)

Comments:


Add report or comment (250 words maximum)

I'd like:  
Type text from captcha: