Our friends

Gene Simmons Family Jewels S07E04 Till Death Do Us Part Part2 HD torrent

Torrent info

Date 2011-10-18 12:47:25
Category Series/TV Shows
Hash 114c5d71910a443c9300ab145d9a1cfbf67aa93e
Seeds / Leechs -1 / -1 refresh
Full size 355 MB
Tracker http://tracker.thepiratebay.org/announce
Tags gene simmons family jewels s07e04 till death part part2

Related torrents

Gene Simmons Family Jewels S05E05-JNS {AVI}(Northern TV)
Gene Simmons Family Jewels S07E07-E08 Wedding Boot Camp HDTV Xvi
gene simmons family jewels s07e03 REAL starting over hdtv x264-c
gene simmons family jewels s07e04 REAL the adoption plan hdtv x2

Torrent's content info

Gene.Simmons.Family.Jewels.S07E04.Till.Death.Do.Us.Part.Part2.HDTV.XviD-CRiMSON.avi

Gene Simmons Family Jewels S07E04 Till Death Do Us Part Part2 HD screenshot
  • Screenshot 1
  • Screenshot 2
  • Screenshot 3
  • Screenshot 4
  • Screenshot 5
  • Screenshot 6
  • Screenshot 7
  • Screenshot 8
  • Screenshot 9

Duration: 00:42:49.06, start: 0.000000, bitrate: 1140 kb/s
Stream #0.0: Video: mpeg4, yuv420p, 624x352 [PAR 1:1 DAR 39:22], 29.97 tbr, 29.97 tbn, 29.98 tbc
Stream #0.1: Audio: mp3, 48000 Hz, 2 channels, s16, 128 kb/s

Check the movie's sound/language:

Text sample Text sample from www.Torrentday.com.txt

www.TorrentDay.com - is the Place you should be!!!!!!!!!!!!!!!!!

we are the most on-time tracker around the globe, You can download releases whenever they release out by group of uploaders.

no Wait Time, no Virus, Very Fast Download Speed.

Visit us at http://www.torrentday.com


Support Torrentday.com to grow faster :)


Thank you =)

http://www.Torrentday.com


www.TorrentDay.com
www.TorrentDay.com
www.TorrentDay.com
www.TorrentDay.com




Text sample Text sample from First Read This Guide.txt

www.TorrentDay.com - is the Place you should be!!!!!!!!!!!!!!!!!

we are the most on-time tracker around the globe, You can download releases whenever they release out by group of uploaders.

no Wait Time, no Virus, Very Fast Download Speed.

Visit us at http://www.torrentday.com


Support Torrentday.com to grow faster :)


Thank you =)

http://www.Torrentday.com


www.TorrentDay.com
www.TorrentDay.com
www.TorrentDay.com
www.TorrentDay.com




Text sample Text sample from gene.simmons.family.jewels.s07e04.till.death.do.us.part.part2.hdtv.xvid-crimson.nfo

==================-[ CRiMSON PROUDLY PRESENTS ]-==================
Got something to offer..email us at crimsoncrew@gmail.com
Now Hiring cappers.....

Release name: Gene.Simmons.Family.Jewels.S07E04.Till.Death.Do.Us.Part.Part2.HDTV.XviD-CRiMSON
Show Title: Gene Simmons Family Jewels
URL: http://www.tvrage.com/Gene_Simmons_Family_Jewels
Airtime: Tuesday at 09:00 pm
Runtime: 30
Genre: Reality
Source: HDTV
Resolution: 624x352
Network: A&E
Country: USA
Release Date: Oct/18/2011
Notes:
===============================-LW-===============================




Contents of download:

355 megabyte in 5 files
Gene Simmons Family Jewels S07E04 Till Death Do Us Part Part2 HD
  • [ www.TorrentDay.com ] - Gene.Simmons.Family.Jewels.S07E04.Till.Death.Do.Us.Part.Part2.HDTV.XviD-CRiMSON/First Read This Guide.txt (0.5 KB)
  • [ www.TorrentDay.com ] - Gene.Simmons.Family.Jewels.S07E04.Till.Death.Do.Us.Part.Part2.HDTV.XviD-CRiMSON/Gene.Simmons.Family.Jewels.S07E04.Till.Death.Do.Us.Part.Part2.HDTV.XviD-CRiMSON.avi (349 MB)
  • [ www.TorrentDay.com ] - Gene.Simmons.Family.Jewels.S07E04.Till.Death.Do.Us.Part.Part2.HDTV.XviD-CRiMSON/gene.simmons.family.jewels.s07e04.till.death.do.us.part.part2.hdtv.xvid-crimson.nfo (0.6 KB)
  • [ www.TorrentDay.com ] - Gene.Simmons.Family.Jewels.S07E04.Till.Death.Do.Us.Part.Part2.HDTV.XviD-CRiMSON/Sample/sample-gene.simmons.family.jewels.s07e04.till.death.do.us.part.part2.hdtv.xvid-crimson.avi (5.8 MB)
  • [ www.TorrentDay.com ] - Gene.Simmons.Family.Jewels.S07E04.Till.Death.Do.Us.Part.Part2.HDTV.XviD-CRiMSON/www.Torrentday.com.txt (0.5 KB)

Comments:


Add report or comment (250 words maximum)

I'd like:  
Type text from captcha: