Our friends

Crazy, Stupid, Love (2011) BRRip NL subs DutchReleaseTeam [Kome torrent

Torrent info

Date 2011-10-18 18:46:46
Category Movies
Hash 56d60521d1a4ada763363d826bb62573b4496ee0
Seeds / Leechs -1 / -1 refresh
Full size 708 MB
Tracker http://tracker.thepiratebay.org/announce
Tags crazy stupid love 2011 brrip subs dutchreleaseteam kome

Related torrents

Crazy Stupid Love 2011 BRRIP XVID AbSurdiTy
Crazy, Stupid, Love 2011 BRRip 720p x264 DXVA-MXMG
Crazy Stupid Love 2011 BRRip XviD AC3-SANTi
Crazy, Stupid, Love (2011) BRRip 720p x264 -MitZep (PhoenixRG)

Crazy, Stupid, Love. overview

Description

Torrent's content info

Crazy, Stupid, Love. (2011) BRRip NL subs DutchReleaseTeam [Komedie&Drama].avi

Crazy, Stupid, Love  (2011) BRRip NL subs DutchReleaseTeam [Kome screenshot
  • Screenshot 1
  • Screenshot 2
  • Screenshot 3
  • Screenshot 4
  • Screenshot 5
  • Screenshot 6
  • Screenshot 7
  • Screenshot 8
  • Screenshot 9

Duration: 01:58:06.03, start: 0.000000, bitrate: 835 kb/s
Stream #0.0: Video: mpeg4, yuv420p, 672x288 [PAR 1:1 DAR 7:3], 23.98 tbr, 23.98 tbn, 23.98 tbc
Stream #0.1: Audio: mp3, 48000 Hz, 2 channels, s16, 160 kb/s

Check the movie's sound/language:

Text sample Text sample from Torrent downloaded from Demonoid.me.txt

Torrent downloaded from http://www.Demonoid.me




Text sample Text sample from DutchReleaseTeam NFO.txt

Deze film werd u aangeboden door: Koedje, releaser van het Dutchrelease-Team

Indien je nog niet met ons bekend bent, twijfel niet en stap gratis en geheel vrijblijvend in....

Heb je net als ons, erg veel interesse in films en alles daaromheen?
Kom dan eens langs op: http://www.hetmultimediacafe.nl

De gezelligste plek waar je als eerste de beste reviews kunt lezen van alle nieuwe films, series, muziek, games en computer programma's.

MVG het Dutchrelease-Team




Contents of download:

708 megabyte in 10 files
Crazy, Stupid, Love (2011) BRRip NL subs DutchReleaseTeam [Kome
  • Crazy, Stupid, Love. (2011) BRRip NL subs DutchReleaseTeam [Komedie&Drama]/Crazy, Stupid, Love. (2011) BRRip NL subs DutchReleaseTeam [Komedie&Drama].avi (706 MB)
  • Crazy, Stupid, Love. (2011) BRRip NL subs DutchReleaseTeam [Komedie&Drama]/sample.avi (2 MB)
  • Crazy, Stupid, Love. (2011) BRRip NL subs DutchReleaseTeam [Komedie&Drama]/Koedje.png (0.1 MB)
  • Crazy, Stupid, Love. (2011) BRRip NL subs DutchReleaseTeam [Komedie&Drama]/Multimediacafe.png (0.1 MB)
  • Crazy, Stupid, Love. (2011) BRRip NL subs DutchReleaseTeam [Komedie&Drama]/Screenshot2.jpg (42.3 KB)
  • Crazy, Stupid, Love. (2011) BRRip NL subs DutchReleaseTeam [Komedie&Drama]/Screenshot4.jpg (29.3 KB)
  • Crazy, Stupid, Love. (2011) BRRip NL subs DutchReleaseTeam [Komedie&Drama]/Screenshot1.jpg (27.3 KB)
  • Crazy, Stupid, Love. (2011) BRRip NL subs DutchReleaseTeam [Komedie&Drama]/Screenshot3.jpg (18.8 KB)
  • Crazy, Stupid, Love. (2011) BRRip NL subs DutchReleaseTeam [Komedie&Drama]/DutchReleaseTeam NFO.txt (0.5 KB)
  • Crazy, Stupid, Love. (2011) BRRip NL subs DutchReleaseTeam [Komedie&Drama]/Torrent downloaded from Demonoid.me.txt (0 KB)

Comments:


Add report or comment (250 words maximum)

I'd like:  
Type text from captcha: