Our friends

90210 S04E06 480p HDTV x264-mSD torrent

Torrent info

Date 2011-10-19 10:46:16
Category Series/TV Shows
Hash f26d3bdf4502f06ee18fd71208dd48cf0f6dca5f
Seeds / Leechs -1 / -1 refresh
Full size 216 MB
Tracker http://tracker.thepiratebay.org/announce
Tags 90210 s04e06 480p hdtv x264
Download – 90210 S04E06 480p HDTV x264-mSD Download direct – no client needed

Related torrents

90210 S04E17 480p HDTV x264-mSD
90210 S05E06 480p HDTV x264-mSD
90210 S05E09 480p HDTV x264-mSD
[ www.TorrentDay.com ] - My.Strange.Addiction.S04E06.480p.HDTV.x264-mSD

Torrent's content info

90210.S04E06.480p.HDTV.x264-mSD.mkv

90210 S04E06 480p HDTV x264-mSD screenshot
  • Screenshot 1
  • Screenshot 2
  • Screenshot 3
  • Screenshot 4
  • Screenshot 5
  • Screenshot 6
  • Screenshot 7
  • Screenshot 8
  • Screenshot 9

Duration: 00:41:33.65, start: 0.000000, bitrate: N/A
Stream #0.0(eng): Video: h264, yuv420p, 852x480, PAR 1:1 DAR 71:40, 23.98 fps, 24 tbr, 1k tbn, 47.95 tbc
--
title : (m)iCRO(S)iZED(D)OWNLADS
Stream #0.1(eng): Audio: aac, 48000 Hz, stereo, s16

Check the movie's sound/language:

Text sample Text sample from Downloaded from www.scenetime.com.txt

torrent has been downloaded from : http://www.scenetime.com

Join now and enjoy the fast speed downloads at www.scenetime.com

For Highres - TV shows and movies visit www.scenetime.com.




Text sample Text sample from Read This Guide First.txt

torrent has been downloaded from : http://www.scenetime.com

Join now and enjoy the fast speed downloads at www.scenetime.com

For Highres - TV shows and movies visit www.scenetime.com.




Text sample Text sample from 90210.S04E06.480p.HDTV.x264-mSD.nfo

[color=blue][b][img]http://www.lookpic.com/mz/82716-g5.jpg[/img]

90210.S04E06.480p.HDTV.x264-mSD [MKV 216MB]

[/b][/color] A Kansas family relocates to Beverly Hills, where their two children adapt to the infamous social drama of West Beverly Hills High.
Based on the 1990s FOX hit, Beverly Hills, 90210.
http://thetvdb.com/?tab=seasonall&id=82716

[pre]...............................................
. 90210.S04E06.480p.HDTV.x264-mSD.mkv
.......................................
. Duration :: 42 Minutes
. Release Size :: 216MB (80% Compress)
. x264 r2085 :: 585 Kbps
. AAC 2ch CBR :: 128 Kbps
. Resolution (AR) :: 852x480 (1.775)
....................

Source : 90210.S04E06.720p.HDTV.x264-IMMERSE : 1.04GB

raw info: 852x480p 0:0 @ 10000000/417083 fps (cfr)
x264 info: profile High, level 4.1
x264 info: frame I:864 Avg QP:23.07 size: 25007
x264 info: frame P:22095 Avg QP:26.36 size: 5391
x264 info: frame B:36829 Avg QP:29.68 size: 1221
x264 info: consecutive...

Read full text


Contents of download:

216 megabyte in 4 files
90210 S04E06 480p HDTV x264-mSD
  • {www.scenetime.com}90210.S04E06.480p.HDTV.x264-mSD/90210.S04E06.480p.HDTV.x264-mSD.mkv (216 MB)
  • {www.scenetime.com}90210.S04E06.480p.HDTV.x264-mSD/90210.S04E06.480p.HDTV.x264-mSD.nfo (1.3 KB)
  • {www.scenetime.com}90210.S04E06.480p.HDTV.x264-mSD/Downloaded from www.scenetime.com.txt (0.2 KB)
  • {www.scenetime.com}90210.S04E06.480p.HDTV.x264-mSD/Read This Guide First.txt (0.2 KB)

Comments:


Add report or comment (250 words maximum)

I'd like:  
Type text from captcha: