Our friends

10-18-2011 General Hospital avi torrent

Torrent info

Date 2011-10-19 21:47:51
Category Series/TV Shows
Hash ca0ca370c8309a6d1b13af099a29bffe2c8d50a1
Seeds / Leechs -1 / -1 refresh
Full size 152 MB
Tracker http://tracker.thepiratebay.org/announce
Tags 2011 general hospital
Download – 10-18-2011 General Hospital avi Download direct – no client needed

Related torrents

General Hospital Oct 7th 2008.avi
05-20-2011 General Hospital mp4
06-20-2011 General Hospital avi
12-14-2011 General Hospital avi

Torrent's content info

10-18-2011 General Hospital.avi

10-18-2011 General Hospital avi screenshot
  • Screenshot 1
  • Screenshot 2
  • Screenshot 3
  • Screenshot 4
  • Screenshot 5
  • Screenshot 6
  • Screenshot 7
  • Screenshot 8
  • Screenshot 9

Duration: 00:35:46.92, start: 0.000000, bitrate: 593 kb/s
Stream #0.0: Video: mpeg4, yuv420p, 720x400 [PAR 1:1 DAR 9:5], 30 tbr, 30 tbn, 30 tbc
Stream #0.1: Audio: mp3, 44100 Hz, 2 channels, s16, 32 kb/s

Check the movie's sound/language:

Contents of download:

152 megabyte in 1 files
10-18-2011 General Hospital avi
  • 10-18-2011 General Hospital.avi (152 MB)

Comments:


Add report or comment (250 words maximum)

I'd like:  
Type text from captcha: