Our friends

Terra Nova(2011)Season 1 Episode 5 (NL Eng subs)HD WEB-DL TBS torrent

Torrent info

Date 2011-10-19 22:46:48
Category Movies
Hash 08739250cf49fa32eda117487f96749caf99a92f
Seeds / Leechs 137 / 126 refresh
Full size 1451 MB
Tracker http://tracker.thepiratebay.org/announce
Tags terra nova 2011 season episode subs

Related torrents

Terra Nova(2011) Seizoen 1 Ep 1 & 2 TVRip NL Sub NLT-Release
Terra Nova (2011) Season 1 Episode 3(MKV)(nl eng subs)HD TBS
Terra Nova(2011)Season 1 Episode 5 (NL Eng subs)HD WEB-DL TBS
Terra Nova (2011)(13 episodes) 720p Web-DL NL Subs SAM TBS

Torrent's content info

Terra.Nova.S01E05.NLsubs.WEB-DL.x264-QoQ.mkv

Terra Nova(2011)Season 1  Episode 5 (NL Eng subs)HD WEB-DL TBS screenshot
  • Screenshot 1
  • Screenshot 2
  • Screenshot 3
  • Screenshot 4
  • Screenshot 5
  • Screenshot 6
  • Screenshot 7
  • Screenshot 8
  • Screenshot 9

Duration: 00:44:02.36, start: 0.000000, bitrate: 384 kb/s
Stream #0.0(eng): Video: h264, yuv420p, 1280x720, PAR 1:1 DAR 16:9, 23.98 fps, 23.98 tbr, 1k tbn, 47.95 tbc
Stream #0.1(eng): Audio: ac3, 48000 Hz, 5.1, s16, 384 kb/s
Stream #0.2(dut): Subtitle: 0x0000
--
title : Nederlands QoQ-Team
Stream #0.3(eng): Subtitle: 0x0000

Check the movie's sound/language:

Text sample Text sample from Torrent_downloaded_from_Demonoid.com.txt

Torrent downloaded from http://www.Demonoid.com


******************************************

Brought to you by
Black-Sam team

meer zien??
Kom dan eens kijken op ons forum

http://www.Black-Sam.org

******************************************




Text sample Text sample from Terra Nova (2011) Season 1 - Episode 5 TBS.txt

Read full text


Text sample Text sample from Black-Sam.txt

@@@@@@@@@@@@@@@@@@@@@@@@@@@@@@@

Kom ook eens kijken :

http://www.black-sam.org

Enjoy

@@@@@@@@@@@@@@@@@@@@@@@@@@@@@@@




Text sample Text sample from Torrent Downloaded from SilverTorrents.me.txt

Torrent Downloaded from SilverTorrents.me


@@@@@@@@@@@@@@@@@@@@@@@@@@@@@@@

Kom ook eens kijken :

http://www.black-sam.org

Enjoy

@@@@@@@@@@@@@@@@@@@@@@@@@@@@@@@




Text sample Text sample from Read.Me.1st.[Movie-Torrentz].txt

_ _____ _
/\/\ _____ _(_) ___ /__ \___ _ __ _ __ ___ _ __ | |_ ____
/ \ / _ \ \ / / |/ _ \_____ / /\/ _ \| '__| '__/ _ \ '_ \| __|_ /
/ /\/\ \ (_) \ V /| | __/_____/ / | |_| | | | | | __/ | | | |_ / /
\/ \/\___/ \_/ |_|\___| \/ \___/|_| |_| \___|_| |_|\__/___|

==========================================
--- + -- Movie-Torrentz.com -- + ---
==========================================


Downloaded and Seeded By Movie-Torrentz.com

The Home Of Quality
Movie, DVD-R, Blu-Ray, MP4 & Tv Torrents.

Visit our site http://movie-torrentz.com

...

Read full text


Text sample Text sample from Torrent_downloaded_from_www.puretorrents.cc.txt

http://puretorrents.cc/index.php




Text sample Text sample from Torrent_downloaded_from_AhaShare.com.txt

Share the fun!!!
Torrent downloaded from AhaShare.com.txt

******************************************

Brought to you by
Black-Sam team

meer zien??
Kom dan eens kijken op ons forum

http://www.Black-Sam.org

******************************************




Contents of download:

1451 megabyte in 12 files
Terra Nova(2011)Season 1 Episode 5 (NL Eng subs)HD WEB-DL TBS
  • Terra Nova (2011) Season 1 episode 5(nl eng subs) DVD5 TBS/COVERS/Qoq-CD.bmp (1.5 MB)
  • Terra Nova (2011) Season 1 episode 5(nl eng subs) DVD5 TBS/COVERS/QoQ-Terra-Nova-Dvd-Cover.bmp (5 MB)
  • Terra Nova (2011) Season 1 episode 5(nl eng subs) DVD5 TBS/COVERS/Terra-Nova-Poster.png (0.3 MB)
  • Terra Nova (2011) Season 1 episode 5(nl eng subs) DVD5 TBS/INFO TBS/Black-Sam.txt (0.1 KB)
  • Terra Nova (2011) Season 1 episode 5(nl eng subs) DVD5 TBS/INFO TBS/Read.Me.1st.[Movie-Torrentz].txt (2 KB)
  • Terra Nova (2011) Season 1 episode 5(nl eng subs) DVD5 TBS/INFO TBS/Terra Nova (2011) Season 1 - Episode 5 TBS.txt (2.2 KB)
  • Terra Nova (2011) Season 1 episode 5(nl eng subs) DVD5 TBS/INFO TBS/Torrent Downloaded from SilverTorrents.me.txt (0.2 KB)
  • Terra Nova (2011) Season 1 episode 5(nl eng subs) DVD5 TBS/INFO TBS/Torrent_downloaded_from_AhaShare.com.txt (0.3 KB)
  • Terra Nova (2011) Season 1 episode 5(nl eng subs) DVD5 TBS/INFO TBS/Torrent_downloaded_from_Demonoid.com.txt (0.3 KB)
  • Terra Nova (2011) Season 1 episode 5(nl eng subs) DVD5 TBS/INFO TBS/Torrent_downloaded_from_www.puretorrents.cc.txt (0 KB)
  • Terra Nova (2011) Season 1 episode 5(nl eng subs) DVD5 TBS/INFO TBS/www.black-Sam org Kom eens Langs !.jpg (13.1 KB)
  • Terra Nova (2011) Season 1 episode 5(nl eng subs) DVD5 TBS/MOVIE/Terra.Nova.S01E05.NLsubs.WEB-DL.x264-QoQ.mkv (1444 MB)

Comments:


Add report or comment (250 words maximum)

I'd like:  
Type text from captcha: