Our friends

Gene Simmons Family Jewels S07E11-E14 The Demon Says I Do HDTV X torrent

Torrent info

Date 2011-10-19 22:47:32
Category Series/TV Shows
Hash 1bb3f8488d99458d5ad0a126c17e4845fd0ce4cc
Seeds / Leechs -1 / -1 refresh
Full size 705 MB
Tracker http://tracker.thepiratebay.org/announce
Tags gene simmons family jewels s07e11 demon says hdtv

Related torrents

Gene Simmons Family Jewels S07E07-E08 Wedding Boot Camp HDTV Xvi
gene simmons family jewels s07e03 REAL starting over hdtv x264-c
gene simmons family jewels s07e04 REAL the adoption plan hdtv x2
Gene Simmons Family Jewels S07E09-10 REAL HDTV x264-CLDD

Torrent's content info

gene.simmons.family.jewels.s07e11-e14.the.demon.says.i.do.hdtv.xvid-crimson.avi

Gene Simmons Family Jewels S07E11-E14 The Demon Says I Do HDTV X screenshot
  • Screenshot 1
  • Screenshot 2
  • Screenshot 3
  • Screenshot 4
  • Screenshot 5
  • Screenshot 6
  • Screenshot 7
  • Screenshot 8
  • Screenshot 9

Duration: 01:26:07.46, start: 0.000000, bitrate: 1134 kb/s
Stream #0.0: Video: mpeg4, yuv420p, 624x352 [PAR 1:1 DAR 39:22], 29.97 tbr, 29.97 tbn, 29.98 tbc
Stream #0.1: Audio: mp3, 48000 Hz, 2 channels, s16, 128 kb/s

Check the movie's sound/language:

Text sample Text sample from www.Torrentday.com.txt

www.TorrentDay.com - is the Place you should be!!!!!!!!!!!!!!!!!

we are the most on-time tracker around the globe, You can download releases whenever they release out by group of uploaders.

no Wait Time, no Virus, Very Fast Download Speed.

Visit us at http://www.torrentday.com


Support Torrentday.com to grow faster :)


Thank you =)

http://www.Torrentday.com


www.TorrentDay.com
www.TorrentDay.com
www.TorrentDay.com
www.TorrentDay.com




Text sample Text sample from gene.simmons.family.jewels.s07e11-e14.the.demon.says.i.do.hdtv.xvid-crimson.nfo

==================-[ CRiMSON PROUDLY PRESENTS ]-==================
Got something to offer..email us at crimsoncrew@gmail.com
Now Hiring cappers.....

Release name: Gene.Simmons.Family.Jewels.S07E11-E14.The.Demon.Says.I.Do.HDTV.XviD-CRiMSON
Source: HDTV
Resolution: 624x352
Release Date: Oct/19/2011
Notes:
===============================-LW-===============================




Text sample Text sample from First Read This Guide.txt

www.TorrentDay.com - is the Place you should be!!!!!!!!!!!!!!!!!

we are the most on-time tracker around the globe, You can download releases whenever they release out by group of uploaders.

no Wait Time, no Virus, Very Fast Download Speed.

Visit us at http://www.torrentday.com


Support Torrentday.com to grow faster :)


Thank you =)

http://www.Torrentday.com


www.TorrentDay.com
www.TorrentDay.com
www.TorrentDay.com
www.TorrentDay.com




Contents of download:

705 megabyte in 5 files
Gene Simmons Family Jewels S07E11-E14 The Demon Says I Do HDTV X
  • [ www.TorrentDay.com ] - Gene.Simmons.Family.Jewels.S07E11-E14.The.Demon.Says.I.Do.HDTV.XviD-CRiMSON/First Read This Guide.txt (0.5 KB)
  • [ www.TorrentDay.com ] - Gene.Simmons.Family.Jewels.S07E11-E14.The.Demon.Says.I.Do.HDTV.XviD-CRiMSON/gene.simmons.family.jewels.s07e11-e14.the.demon.says.i.do.hdtv.xvid-crimson.avi (699 MB)
  • [ www.TorrentDay.com ] - Gene.Simmons.Family.Jewels.S07E11-E14.The.Demon.Says.I.Do.HDTV.XviD-CRiMSON/gene.simmons.family.jewels.s07e11-e14.the.demon.says.i.do.hdtv.xvid-crimson.nfo (0.4 KB)
  • [ www.TorrentDay.com ] - Gene.Simmons.Family.Jewels.S07E11-E14.The.Demon.Says.I.Do.HDTV.XviD-CRiMSON/Sample/sample-gene.simmons.family.jewels.s07e11-e14.the.demon.says.i.do.hdtv.xvid-crimson.avi (6.7 MB)
  • [ www.TorrentDay.com ] - Gene.Simmons.Family.Jewels.S07E11-E14.The.Demon.Says.I.Do.HDTV.XviD-CRiMSON/www.Torrentday.com.txt (0.5 KB)

Comments:


Add report or comment (250 words maximum)

I'd like:  
Type text from captcha: