Our friends

Nora Roberts - Hemligheter 2007 - DAISY torrent

Torrent info

Date 2011-10-21 11:46:30
Category Other
Hash 89fd056f9749c30165b461811e397be01686b4fb
Seeds / Leechs -1 / -1 refresh
Full size 178 MB
Tracker http://tracker.ilibr.org:6969/scrape
Tags nora roberts hemligheter 2007 daisy
Download – Nora Roberts - Hemligheter 2007 - DAISY Download direct – no client needed

Related torrents

Vid Avgrundens Rand 2000 - Nora Roberts
Ävar Örn Josepsson -Svarta änglar-2007-DAISY-AUDIOBOOK-SE-200
Ramona_Fransson_-_Dyrbar_Kaerlek-2007-DAISY-AUDIOBOOK-SE-2008-Lz
Nora Roberts - Hemligheter

Torrent's content info

00-nora_roberts_-_hemligheter-daisy-audiobook-se-2008-daisypack-lzy.rar

  • 151e5_0005.smil (77.1 KB)
  • 151e5_0004.smil (3.4 KB)
  • master.smil (1.8 KB)
  • 151e5_0016.smil (71.5 KB)
  • 151e5_0007.smil (75 KB)
  • 151e5_0010.smil (72.1 KB)
  • 151e5_0013.smil (54.9 KB)
  • ncc.html (32.8 KB)
  • 151e5_0003.smil (1.4 KB)
  • 151e5_0017.smil (32 KB)
  • 151e5_0015.smil (63.6 KB)
  • 151e5_0006.smil (67.6 KB)
  • 151e5_0009.smil (85.1 KB)
  • 151e5_0014.smil (62.9 KB)
  • 151e5_0002.smil (1 KB)
  • 151e5_0011.smil (69.1 KB)
  • 151e5_0008.smil (75 KB)
  • 151e5_0001.smil (1.4 KB)
  • 151e5_0012.smil (78.5 KB)

20 seconds audio samples

09-nora_roberts_-_hemligheter-lzy_sample.mp3
Audio file info Duration: 00:46:33.43, start: 0.000000, bitrate: 48 kb/s
Stream #0.0: Audio: mp3, 22050 Hz, 1 channels, s16, 48 kb/s
08-nora_roberts_-_hemligheter-lzy_sample.mp3
Audio file info Duration: 00:46:06.26, start: 0.000000, bitrate: 48 kb/s
Stream #0.0: Audio: mp3, 22050 Hz, 1 channels, s16, 48 kb/s
10-nora_roberts_-_hemligheter-lzy_sample.mp3
Audio file info Duration: 00:41:25.79, start: 0.000000, bitrate: 48 kb/s
Stream #0.0: Audio: mp3, 22050 Hz, 1 channels, s16, 48 kb/s
14-nora_roberts_-_hemligheter-lzy_sample.mp3
Audio file info Duration: 00:36:22.85, start: 0.000000, bitrate: 48 kb/s
Stream #0.0: Audio: mp3, 22050 Hz, 1 channels, s16, 48 kb/s

Text sample Text sample from 00-nora_roberts_-_hemligheter-daisy-audiobook-se-2008-lzy.nfo

Read full text


Contents of download:

178 megabyte in 23 files
Nora Roberts - Hemligheter 2007 - DAISY
  • Nora_Roberts_-_Hemligheter-2007-DAISY-AUDIOBOOK-SE-2008-LzY/00-nora_roberts_-_hemligheter-daisy-audiobook-se-2008-daisypack-lzy.rar (72.3 KB)
  • Nora_Roberts_-_Hemligheter-2007-DAISY-AUDIOBOOK-SE-2008-LzY/00-nora_roberts_-_hemligheter-daisy-audiobook-se-2008-lzy.m3u (0.7 KB)
  • Nora_Roberts_-_Hemligheter-2007-DAISY-AUDIOBOOK-SE-2008-LzY/00-nora_roberts_-_hemligheter-daisy-audiobook-se-2008-lzy.nfo (6.5 KB)
  • Nora_Roberts_-_Hemligheter-2007-DAISY-AUDIOBOOK-SE-2008-LzY/00-nora_roberts_-_hemligheter-daisy-audiobook-se-2008-lzy.sfv (0.9 KB)
  • Nora_Roberts_-_Hemligheter-2007-DAISY-AUDIOBOOK-SE-2008-LzY/01-nora_roberts_-_hemligheter-lzy.mp3 (0.2 MB)
  • Nora_Roberts_-_Hemligheter-2007-DAISY-AUDIOBOOK-SE-2008-LzY/02-nora_roberts_-_hemligheter-lzy.mp3 (75.3 KB)
  • Nora_Roberts_-_Hemligheter-2007-DAISY-AUDIOBOOK-SE-2008-LzY/03-nora_roberts_-_hemligheter-lzy.mp3 (0.1 MB)
  • Nora_Roberts_-_Hemligheter-2007-DAISY-AUDIOBOOK-SE-2008-LzY/04-nora_roberts_-_hemligheter-lzy.mp3 (0.6 MB)
  • Nora_Roberts_-_Hemligheter-2007-DAISY-AUDIOBOOK-SE-2008-LzY/05-nora_roberts_-_hemligheter-lzy.mp3 (16 MB)
  • Nora_Roberts_-_Hemligheter-2007-DAISY-AUDIOBOOK-SE-2008-LzY/06-nora_roberts_-_hemligheter-lzy.mp3 (14 MB)
  • Nora_Roberts_-_Hemligheter-2007-DAISY-AUDIOBOOK-SE-2008-LzY/07-nora_roberts_-_hemligheter-lzy.mp3 (14 MB)
  • Nora_Roberts_-_Hemligheter-2007-DAISY-AUDIOBOOK-SE-2008-LzY/08-nora_roberts_-_hemligheter-lzy.mp3 (16 MB)
  • Nora_Roberts_-_Hemligheter-2007-DAISY-AUDIOBOOK-SE-2008-LzY/09-nora_roberts_-_hemligheter-lzy.mp3 (16 MB)
  • Nora_Roberts_-_Hemligheter-2007-DAISY-AUDIOBOOK-SE-2008-LzY/10-nora_roberts_-_hemligheter-lzy.mp3 (14 MB)
  • Nora_Roberts_-_Hemligheter-2007-DAISY-AUDIOBOOK-SE-2008-LzY/11-nora_roberts_-_hemligheter-lzy.mp3 (13 MB)
  • Nora_Roberts_-_Hemligheter-2007-DAISY-AUDIOBOOK-SE-2008-LzY/12-nora_roberts_-_hemligheter-lzy.mp3 (14 MB)
  • Nora_Roberts_-_Hemligheter-2007-DAISY-AUDIOBOOK-SE-2008-LzY/13-nora_roberts_-_hemligheter-lzy.mp3 (12 MB)
  • Nora_Roberts_-_Hemligheter-2007-DAISY-AUDIOBOOK-SE-2008-LzY/14-nora_roberts_-_hemligheter-lzy.mp3 (12 MB)
  • Nora_Roberts_-_Hemligheter-2007-DAISY-AUDIOBOOK-SE-2008-LzY/15-nora_roberts_-_hemligheter-lzy.mp3 (13 MB)
  • Nora_Roberts_-_Hemligheter-2007-DAISY-AUDIOBOOK-SE-2008-LzY/16-nora_roberts_-_hemligheter-lzy.mp3 (15 MB)
  • Nora_Roberts_-_Hemligheter-2007-DAISY-AUDIOBOOK-SE-2008-LzY/17-nora_roberts_-_hemligheter-lzy.mp3 (6.5 MB)
  • Nora_Roberts_-_Hemligheter-2007-DAISY-AUDIOBOOK-SE-2008-LzY/FilmFix.png (73.1 KB)
  • Nora_Roberts_-_Hemligheter-2007-DAISY-AUDIOBOOK-SE-2008-LzY/read me.log (8.6 KB)

Comments:


Add report or comment (250 words maximum)

I'd like:  
Type text from captcha: