Our friends

Desi Boyz [2011-MP3-VBR-320Kbps] *MP3 Songs Download* - [DM] torrent

Torrent info

Date 2011-10-27 23:48:09
Category Music
Hash 89dd5cf7d6e997926f059c2ab463a88e465cc506
Seeds / Leechs 2 / 0 refresh
Full size 84 MB
Tracker http://tracker.torrent.to:2710/scrape
Tags desi boyz 2011 320kbps songs download

Related torrents

Zindagi Na Milegi Dobara (2011) MP3 Songs Download ~192Kbps-CBR [DM]
Force (2011) MP3 Songs Download ~192Kbps-VBR - ExclusivE [DM]
Desi Boyz (2011) *MP3 Songs Download* ~192Kbps-CBR [DM]
Desi Boyz [2011-MP3-VBR-320Kbps] *MP3 Songs Download* - [DM]

Torrent's content info

20 seconds audio samples

02 - Desi Boyz - Subha Hone Na De [www.DJMaza.Com]_sample.mp3
Audio file info Duration: 00:04:48.60, start: 0.000000, bitrate: 268 kb/s
Stream #0.0: Audio: mp3, 44100 Hz, 2 channels, s16, 32 kb/s
10 - Desi Boyz - Make Some Noise For The Desi Boyz (Remix) [www.DJMaza.Com]_sample.mp3
Audio file info Duration: 00:04:30.81, start: 0.000000, bitrate: 274 kb/s
Stream #0.0: Audio: mp3, 44100 Hz, 2 channels, s16, 32 kb/s
09 - Desi Boyz - Jhak Mar Ke (Remix) [www.DJMaza.Com]_sample.mp3
Audio file info Duration: 00:03:02.80, start: 0.000000, bitrate: 258 kb/s
Stream #0.0: Audio: mp3, 44100 Hz, 2 channels, s16, 32 kb/s
03 - Desi Boyz - Jhak Maar Ke [www.DJMaza.Com]_sample.mp3
Audio file info Duration: 00:03:53.19, start: 0.000000, bitrate: 278 kb/s
Stream #0.0: Audio: mp3, 44100 Hz, 2 channels, s16, 32 kb/s

Contents of download:

84 megabyte in 11 files
Desi Boyz [2011-MP3-VBR-320Kbps] *MP3 Songs Download* - [DM]
  • Desi Boyz [2011-MP3-VBR-320Kbps] - [DM]/09 - Desi Boyz - Subha Hone Na De (Remix) [www.DJMaza.Com].mp3 (9.5 MB)
  • Desi Boyz [2011-MP3-VBR-320Kbps] - [DM]/07 - Desi Boyz - Allah Maaf Kare (Remix) [www.DJMaza.Com].mp3 (9.3 MB)
  • Desi Boyz [2011-MP3-VBR-320Kbps] - [DM]/02 - Desi Boyz - Subha Hone Na De [www.DJMaza.Com].mp3 (9.2 MB)
  • Desi Boyz [2011-MP3-VBR-320Kbps] - [DM]/06 - Desi Boyz - Tu Mera Hero [www.DJMaza.Com].mp3 (8.9 MB)
  • Desi Boyz [2011-MP3-VBR-320Kbps] - [DM]/01 - Desi Boyz - Make Some Noise For The Desi Boyz [www.DJMaza.Com].mp3 (8.9 MB)
  • Desi Boyz [2011-MP3-VBR-320Kbps] - [DM]/10 - Desi Boyz - Make Some Noise For The Desi Boyz (Remix) [www.DJMaza.Com].mp3 (8.9 MB)
  • Desi Boyz [2011-MP3-VBR-320Kbps] - [DM]/05 - Desi Boyz - Let It Be [www.DJMaza.Com].mp3 (8.6 MB)
  • Desi Boyz [2011-MP3-VBR-320Kbps] - [DM]/03 - Desi Boyz - Jhak Maar Ke [www.DJMaza.Com].mp3 (7.7 MB)
  • Desi Boyz [2011-MP3-VBR-320Kbps] - [DM]/04 - Desi Boyz - Allah Maaf Kare [www.DJMaza.Com].mp3 (7.6 MB)
  • Desi Boyz [2011-MP3-VBR-320Kbps] - [DM]/09 - Desi Boyz - Jhak Mar Ke (Remix) [www.DJMaza.Com].mp3 (5.6 MB)
  • Desi Boyz [2011-MP3-VBR-320Kbps] - [DM]/Desi Boyz - Front.jpg (0.1 MB)

Comments:


Add report or comment (250 words maximum)

I'd like:  
Type text from captcha: