Our friends

Coldplay - Mylo Xyloto (2011) 320Kbit(mp3) DMT torrent

Torrent info

Date 2011-10-27 23:50:09
Category Music
Hash 2e1f12300a13cf4f16ffb97f5cd3c2bd3042f4c2
Seeds / Leechs 155 / 37 refresh
Full size 121 MB
Tracker http://inferno.demonoid.me:3407/scrape
Tags coldplay mylo xyloto 2011 320kbit

Related torrents

Coldplay - Mylo Xyloto - 2011
Coldplay - Mylo Xyloto (2011) 320 vtwin88cube
Coldplay- Mylo Xyloto- [2011]- Mp3ViLLe
Coldplay - Mylo Xyloto (2011) 320Kbit(mp3) DMT

Coldplay, Mylo Xyloto overview

Description

Torrent's content info

20 seconds audio samples

04 - Coldplay - Charlie Brown_sample.mp3
Audio file info Duration: 00:04:45.20, start: 0.000000, bitrate: 322 kb/s
Stream #0.0: Audio: mp3, 44100 Hz, 2 channels, s16, 320 kb/s
10 - Coldplay - Princess of China (feat. Rihanna)_sample.mp3
Audio file info Duration: 00:03:59.25, start: 0.000000, bitrate: 323 kb/s
Stream #0.0: Audio: mp3, 44100 Hz, 2 channels, s16, 320 kb/s
11 - Coldplay - Up in flames_sample.mp3
Audio file info Duration: 00:03:13.28, start: 0.000000, bitrate: 324 kb/s
Stream #0.0: Audio: mp3, 44100 Hz, 2 channels, s16, 320 kb/s
08 - Coldplay - Major minus_sample.mp3
Audio file info Duration: 00:03:30.28, start: 0.000000, bitrate: 323 kb/s
Stream #0.0: Audio: mp3, 44100 Hz, 2 channels, s16, 320 kb/s

Text sample Text sample from Torrent downloaded from Demonoid.me.txt

Torrent downloaded from http://www.Demonoid.me




Text sample Text sample from DMT NFO, Read before Playing.txt

Dit is een upload van Dutch Movie Theater.

Wij zijn op zoek naar nieuwe uploaders om het DMT-team te versterken. Heb je de tijd en
de zin, meld je dan nu aan bij www.Film-Fanatics.nl. Zij zullen je aanmelding doorsturen
naar het DMT-team en dit zal zo spoedig mogelijk contact met je opnemen.

Wij zijn een uploaders team dat zich hoofdzakelijk bezig houdt met
Nederlands(e ) ondertitelde films, maar ook boeken (ePub en luisterboeken in mp3),
programma's en spelletjes krijgen onze aandacht. Uiteraard zijn deze ook Nederlandstalig.

Al onze releases zijn terug te vinden op de bekende torrentsites.
Eveneens zul je reviews van onze releases terug kunnen vinden op http://Film-Fanatics.nl.

Let wel op dat deze site geen torrent of downloads site is:
het is enkel en alleen bedoeld om te discuseren over de films en boeken
en de kwaliteit daarvan, maar bovenal voor de gezelligheid!

Veel kijk-/lees-/speel- en luisterplezier!
Team Dutch Movie...

Read full text


Contents of download:

121 megabyte in 22 files
Coldplay - Mylo Xyloto (2011) 320Kbit(mp3) DMT
  • Coldplay - Mylo Xyloto (2011), 320Kbit(mp3), DMT/01 - Coldplay - Mylo Xyloto.mp3 (1.7 MB)
  • Coldplay - Mylo Xyloto (2011), 320Kbit(mp3), DMT/02 - Coldplay - Hurts like heaven.mp3 (9.3 MB)
  • Coldplay - Mylo Xyloto (2011), 320Kbit(mp3), DMT/03 - Coldplay - Paradise.mp3 (11 MB)
  • Coldplay - Mylo Xyloto (2011), 320Kbit(mp3), DMT/04 - Coldplay - Charlie Brown.mp3 (11 MB)
  • Coldplay - Mylo Xyloto (2011), 320Kbit(mp3), DMT/05 - Coldplay - Us against the world.mp3 (9.2 MB)
  • Coldplay - Mylo Xyloto (2011), 320Kbit(mp3), DMT/06 - Coldplay - M.M.I.X..mp3 (2 MB)
  • Coldplay - Mylo Xyloto (2011), 320Kbit(mp3), DMT/07 - Coldplay - Every teardrop is a waterfall.mp3 (9.3 MB)
  • Coldplay - Mylo Xyloto (2011), 320Kbit(mp3), DMT/08 - Coldplay - Major minus.mp3 (8.1 MB)
  • Coldplay - Mylo Xyloto (2011), 320Kbit(mp3), DMT/09 - Coldplay - U.F.O..mp3 (5.4 MB)
  • Coldplay - Mylo Xyloto (2011), 320Kbit(mp3), DMT/10 - Coldplay - Princess of China (feat. Rihanna).mp3 (9.2 MB)
  • Coldplay - Mylo Xyloto (2011), 320Kbit(mp3), DMT/11 - Coldplay - Up in flames.mp3 (7.5 MB)
  • Coldplay - Mylo Xyloto (2011), 320Kbit(mp3), DMT/12 - Coldplay - A hopeful transmission.mp3 (1.4 MB)
  • Coldplay - Mylo Xyloto (2011), 320Kbit(mp3), DMT/13 - Coldplay - Don't let it break your heart.mp3 (9 MB)
  • Coldplay - Mylo Xyloto (2011), 320Kbit(mp3), DMT/14 - Coldplay - Up with the birds.mp3 (8.8 MB)
  • Coldplay - Mylo Xyloto (2011), 320Kbit(mp3), DMT/Coldplay - Mylo Xyloto - Back.bmp (7 MB)
  • Coldplay - Mylo Xyloto (2011), 320Kbit(mp3), DMT/Coldplay - Mylo Xyloto - CD.bmp (6 MB)
  • Coldplay - Mylo Xyloto (2011), 320Kbit(mp3), DMT/Coldplay - Mylo Xyloto - Front.bmp (5.7 MB)
  • Coldplay - Mylo Xyloto (2011), 320Kbit(mp3), DMT/Coldplay - Mylo Xyloto.log (5.5 KB)
  • Coldplay - Mylo Xyloto (2011), 320Kbit(mp3), DMT/Coldplay - Mylo Xyloto.m3u (0.8 KB)
  • Coldplay - Mylo Xyloto (2011), 320Kbit(mp3), DMT/DMT NFO, Read before Playing.txt (1.7 KB)
  • Coldplay - Mylo Xyloto (2011), 320Kbit(mp3), DMT/DMT.png (72.9 KB)
  • Coldplay - Mylo Xyloto (2011), 320Kbit(mp3), DMT/Torrent downloaded from Demonoid.me.txt (0 KB)

Comments:


Add report or comment (250 words maximum)

I'd like:  
Type text from captcha: