Our friends

Cowboys and Vampires 2010 DVDRip x264 AAC-eXceSs torrent

Torrent info

Date 2011-11-02 21:47:01
Category Movies
Hash 13f46494d538e4f04cdd3892fe892f99904ec60c
Seeds / Leechs 22 / 119 refresh
Full size 710 MB
Tracker http://tracker.thepiratebay.org/announce
Tags cowboys vampires 2010 dvdrip x264 excess

Related torrents

True Legend 2010 DVDRip X264 AC3-gandarloda
The Town 2010 DvDrip x264 FILTERED 450MB-scOrp
Insane 2010 DvDRip x264 Feel-Free
Cowboys and Vampires 2010 DVDRip x264 AAC-eXceSs

Torrent's content info

excess-x264-cav.mkv

Cowboys and Vampires 2010 DVDRip x264 AAC-eXceSs screenshot
  • Screenshot 1
  • Screenshot 2
  • Screenshot 3
  • Screenshot 4
  • Screenshot 5
  • Screenshot 6
  • Screenshot 7
  • Screenshot 8
  • Screenshot 9

Duration: 01:29:18.00, start: 0.000000, bitrate: N/A
Stream #0.0(eng): Video: h264, yuv420p, 624x336 [PAR 595:624 DAR 85:48], PAR 41:43 DAR 533:301, 25 fps, 25 tbr, 1k tbn, 180k tbc
Stream #0.1: Audio: aac, 48000 Hz, stereo, s16

Check the movie's sound/language:

Text sample Text sample from excess-x264-cav.nfo

ooooooo ooooo .oooooo..o
`8888 d8' d8P' `Y8
.ooooo. Y888..8P .ooooo. .ooooo. Y88bo. .oooo.o
d88' `88b `8888' d88' `"Y8 d88' `88b `"Y8888o. d88( "8
888ooo888 .8PY888. 888 888ooo888 `"Y88b `"Y88b.
888 .o d8' `888b 888 .o8 888 .o oo .d8P o. )88b
`Y8bod8P' o888o o88888o `Y8bod8P' `Y8bod8P' 8""88888P' 8""888P'

[img]http://lookpic.com/O/i2/793/JynT92zT.jpeg[/img]

### [img]http://lookpic.com/c1/i2/1094/Aef3aLpi.png[/img] ###

Release Title : Cowboys.and.Vampires.2010.DVDRip.x264.AAC-eXceSs
Encode Date : November 2011
Encoder : dejeme
Source : COMPLETE.PAL.DVDR-FEATURE (Many THX)
DVD Suppliers : eXceSs Team
Movie Size : 701 MB
1 Disks : 49 x 15 Mb

### [img]http://lookpic.com/c1/i2/3323/wbj7fd4a.png[/img] ###

IMDB : http://www.imdb.com/title/tt1648062/
IMDB Rating : 3.8/10 from 46 users
Language :...

Read full text


Text sample Text sample from READ this before playing the Movie.txt

www.Torrenting.com - a special Tracker only for Movies.

we are the most on-time tracker around the globe, You can download releases whenever they release out by group uploaders.

no Wait Time, no Virus, Very Fast Download Speed.

Find us at http://www.torrenting.com

Support Torrenting.com to grow faster :)

Thank you =)

Join The Legends at: http://www.Torrenting.com

www.Torrenting.com
www.Torrenting.com
www.Torrenting.com
www.Torrenting.com




Text sample Text sample from www.Torrenting.com.txt

www.Torrenting.com - a special Tracker only for Movies.

we are the most on-time tracker around the globe, You can download releases whenever they release out by group uploaders.

no Wait Time, no Virus, Very Fast Download Speed.

Find us at http://www.torrenting.com

Support Torrenting.com to grow faster :)

Thank you =)

Join The Legends at: http://www.Torrenting.com

www.Torrenting.com
www.Torrenting.com
www.Torrenting.com
www.Torrenting.com




Contents of download:

710 megabyte in 5 files
Cowboys and Vampires 2010 DVDRip x264 AAC-eXceSs
  • [ www.Torrenting.com ] - Cowboys.and.Vampires.2010.DVDRip.x264.AAC-eXceSs/excess-x264-cav.mkv (701 MB)
  • [ www.Torrenting.com ] - Cowboys.and.Vampires.2010.DVDRip.x264.AAC-eXceSs/excess-x264-cav.nfo (5.5 KB)
  • [ www.Torrenting.com ] - Cowboys.and.Vampires.2010.DVDRip.x264.AAC-eXceSs/READ this before playing the Movie.txt (0.5 KB)
  • [ www.Torrenting.com ] - Cowboys.and.Vampires.2010.DVDRip.x264.AAC-eXceSs/Sample/excess-x264-cav (1)-006.mkv (8.5 MB)
  • [ www.Torrenting.com ] - Cowboys.and.Vampires.2010.DVDRip.x264.AAC-eXceSs/www.Torrenting.com.txt (0.5 KB)

Comments:


Add report or comment (250 words maximum)

I'd like:  
Type text from captcha: