Our friends

Lobo - The Best Of Lobo[mp3] torrent

Torrent info

Date 2011-11-04 00:48:21
Category Music
Hash 52d336720869ac9306a77ea2c90abe8be4951be0
Seeds / Leechs -1 / -1 refresh
Full size 145 MB
Tracker http://tracker.thepiratebay.org/announce
Tags lobo best lobo
Download – Lobo - The Best Of Lobo[mp3] Download direct – no client needed

Related torrents

Estopa - La Boca Del Lobo Unplugged (2008) Pop WwW Mixermusic net
GTA.4.CRACK.WORKING-LOBO
Estopa - La boca del lobo.(Unplugged) - 2008.
Lobo - Introducing Lobo (1971); Of A Simple Man (1972) [2005]

Torrent's content info

20 seconds audio samples

17 - Don't Tell Me Goodnight_sample.mp3
Audio file info Duration: 00:03:08.16, start: 0.000000, bitrate: 320 kb/s
Stream #0.0: Audio: mp3, 44100 Hz, 2 channels, s16, 320 kb/s
04 - California Kid And Reemo_sample.mp3
Audio file info Duration: 00:02:49.01, start: 0.000000, bitrate: 320 kb/s
Stream #0.0: Audio: mp3, 44100 Hz, 2 channels, s16, 320 kb/s
10 - How Can I Tell Her_sample.mp3
Audio file info Duration: 00:04:19.70, start: 0.000000, bitrate: 320 kb/s
Stream #0.0: Audio: mp3, 44100 Hz, 2 channels, s16, 320 kb/s
14 - Love Me For What I Am_sample.mp3
Audio file info Duration: 00:04:03.48, start: 0.000000, bitrate: 320 kb/s
Stream #0.0: Audio: mp3, 44100 Hz, 2 channels, s16, 320 kb/s

Contents of download:

145 megabyte in 18 files
Lobo - The Best Of Lobo[mp3]
  • Lobo - The Best Of Lobo[www.lokotorrents.com][mp3]/10 - How Can I Tell Her.mp3 (10 MB)
  • Lobo - The Best Of Lobo[www.lokotorrents.com][mp3]/06 - I'd Love You To Want Me.mp3 (9.3 MB)
  • Lobo - The Best Of Lobo[www.lokotorrents.com][mp3]/07 - A Big Red Kite.mp3 (9.3 MB)
  • Lobo - The Best Of Lobo[www.lokotorrents.com][mp3]/14 - Love Me For What I Am.mp3 (9.3 MB)
  • Lobo - The Best Of Lobo[www.lokotorrents.com][mp3]/15 - Standing At The End Of The Line.mp3 (8.9 MB)
  • Lobo - The Best Of Lobo[www.lokotorrents.com][mp3]/11 - Rock And Roll Days.mp3 (8.8 MB)
  • Lobo - The Best Of Lobo[www.lokotorrents.com][mp3]/18 - Would I Still Have You.mp3 (8.6 MB)
  • Lobo - The Best Of Lobo[www.lokotorrents.com][mp3]/12 - Goodbye Is Just Another Word.mp3 (8.2 MB)
  • Lobo - The Best Of Lobo[www.lokotorrents.com][mp3]/08 - Don't Expect Me To Be Your Friend.mp3 (8.2 MB)
  • Lobo - The Best Of Lobo[www.lokotorrents.com][mp3]/16 - Rings.mp3 (8 MB)
  • Lobo - The Best Of Lobo[www.lokotorrents.com][mp3]/03 - I'm The Only One.mp3 (7.6 MB)
  • Lobo - The Best Of Lobo[www.lokotorrents.com][mp3]/13 - There Ain't No Way.mp3 (7.5 MB)
  • Lobo - The Best Of Lobo[www.lokotorrents.com][mp3]/09 - It Sure Took A Long, Long Time.mp3 (7.2 MB)
  • Lobo - The Best Of Lobo[www.lokotorrents.com][mp3]/17 - Don't Tell Me Goodnight.mp3 (7.2 MB)
  • Lobo - The Best Of Lobo[www.lokotorrents.com][mp3]/01 - Me And You And A Dog Named Boo.mp3 (6.8 MB)
  • Lobo - The Best Of Lobo[www.lokotorrents.com][mp3]/05 - A Simple Man.mp3 (6.7 MB)
  • Lobo - The Best Of Lobo[www.lokotorrents.com][mp3]/02 - She Didn't Do Magic.mp3 (6.7 MB)
  • Lobo - The Best Of Lobo[www.lokotorrents.com][mp3]/04 - California Kid And Reemo.mp3 (6.5 MB)

Comments:


Add report or comment (250 words maximum)

I'd like:  
Type text from captcha: