Our friends

Damien Rice - O (2003) [FLAC] politux [FAP] torrent

Torrent info

Date 2011-11-06 01:47:29
Category Music
Hash 56db5fa712663195476616544b70453199d270f7
Seeds / Leechs -1 / -1 refresh
Full size 307 MB
Tracker http://tracker.thepiratebay.org/announce
Tags damien rice 2003 flac politux
Download – Damien Rice - O (2003) [FLAC] politux [FAP] Download direct – no client needed

Related torrents

Damien Rice -- BBC Four Sessions (MP3 - 9 Tracks)
[tntvillage.org] Damien Rice - O
Damien Rice 15-08-2003 Live at Paradiso 2CDs & Covers
Damien Jurado Where Shall You Take Me(2003)[FLAC]

Torrent's content info

20 seconds audio samples

10 - Eskimo - Prague - Silent Night.flac_sample.mp3
Audio file info Duration: 00:16:06.88, bitrate: 548 kb/s
Stream #0.0: Audio: flac, 44100 Hz, 2 channels, s16
3 - The Blower's Daughter.flac_sample.mp3
Audio file info Duration: 00:04:43.97, bitrate: 793 kb/s
Stream #0.0: Audio: flac, 44100 Hz, 2 channels, s16
7 - Cheers Darlin'.flac_sample.mp3
Audio file info Duration: 00:05:50.21, bitrate: 678 kb/s
Stream #0.0: Audio: flac, 44100 Hz, 2 channels, s16
1 - Delicate.flac_sample.mp3
Audio file info Duration: 00:05:09.90, bitrate: 703 kb/s
Stream #0.0: Audio: flac, 44100 Hz, 2 channels, s16

Text sample Text sample from damienrice-o-2003-flac-politux-fap.nfo

Another quality release from:

8888888888 d8888 8888888b.
888 d88888 888 Y88b
888 d88P888 888 888
8888888 d88P 888 888 d88P
888 d88P 888 8888888P"
888 d88P 888 888
888 d8888888888 888
888 d88P 888 888

The Fucked-Up Angels Pirate Crew

*******************************************************************************
Damien Rice - O (2003) [FLAC] politux [FAP]
*******************************************************************************

-------------------------------------------------------------------------------
Cover
-------------------------------------------------------------------------------

...

Read full text


Contents of download:

307 megabyte in 12 files
Damien Rice - O (2003) [FLAC] politux [FAP]
  • Damien Rice - O (2003) [FLAC] politux [FAP]/1 - Delicate.flac (26 MB)
  • Damien Rice - O (2003) [FLAC] politux [FAP]/10 - Eskimo - Prague - Silent Night.flac (63 MB)
  • Damien Rice - O (2003) [FLAC] politux [FAP]/2 - Volcano.flac (26 MB)
  • Damien Rice - O (2003) [FLAC] politux [FAP]/3 - The Blower's Daughter.flac (27 MB)
  • Damien Rice - O (2003) [FLAC] politux [FAP]/4 - Cannonball.flac (27 MB)
  • Damien Rice - O (2003) [FLAC] politux [FAP]/5 - Older Chests.flac (25 MB)
  • Damien Rice - O (2003) [FLAC] politux [FAP]/6 - Amie.flac (29 MB)
  • Damien Rice - O (2003) [FLAC] politux [FAP]/7 - Cheers Darlin'.flac (28 MB)
  • Damien Rice - O (2003) [FLAC] politux [FAP]/8 - Cold Water.flac (25 MB)
  • Damien Rice - O (2003) [FLAC] politux [FAP]/9 - I Remember.flac (31 MB)
  • Damien Rice - O (2003) [FLAC] politux [FAP]/cover.jpg (14.2 KB)
  • Damien Rice - O (2003) [FLAC] politux [FAP]/damienrice-o-2003-flac-politux-fap.nfo (2.5 KB)

Comments:


Add report or comment (250 words maximum)

I'd like:  
Type text from captcha: