Our friends

Arena - 2011 - The Seventh Degree Of Separation torrent

Torrent info

Date 2011-11-08 07:46:28
Category Music
Hash ab2c02edb0cacdc399f4016640e08244265cfb24
Seeds / Leechs 6 / 0 refresh
Full size 128 MB
Tracker http://tracker.thepiratebay.org/announce
Tags arena 2011 seventh degree separation

Related torrents

ARENA 2011 NTSC DVD 5 CUSTOM NLSubs + Eng TBS
Arena (2011)(Retail)(XVID)(900 MB)(nlsubs)(DD 5 1)-TBS
Arena 2011 DVDRip XviD-ViP3R
Arena - 2011 - The Seventh Degree Of Separation

Torrent's content info

20 seconds audio samples

03- One Last Au Revoir_sample.mp3
Audio file info Duration: 00:04:34.47, start: 0.000000, bitrate: 320 kb/s
Stream #0.0: Audio: mp3, 44100 Hz, 2 channels, s16, 320 kb/s
06- Close Your Eyes_sample.mp3
Audio file info Duration: 00:03:25.70, start: 0.000000, bitrate: 320 kb/s
Stream #0.0: Audio: mp3, 44100 Hz, 2 channels, s16, 320 kb/s
09- What If_sample.mp3
Audio file info Duration: 00:04:35.78, start: 0.000000, bitrate: 320 kb/s
Stream #0.0: Audio: mp3, 44100 Hz, 2 channels, s16, 320 kb/s
13- The Tinder Box_sample.mp3
Audio file info Duration: 00:04:16.62, start: 0.000000, bitrate: 320 kb/s
Stream #0.0: Audio: mp3, 44100 Hz, 2 channels, s16, 320 kb/s

Contents of download:

128 megabyte in 13 files
Arena - 2011 - The Seventh Degree Of Separation
  • Arena/2011 The Seventh Degree Of Separation/01- The Great Escape.mp3 (11 MB)
  • Arena/2011 The Seventh Degree Of Separation/02- Rapture.mp3 (10 MB)
  • Arena/2011 The Seventh Degree Of Separation/03- One Last Au Revoir.mp3 (10 MB)
  • Arena/2011 The Seventh Degree Of Separation/04- The Ghost Walks.mp3 (7.6 MB)
  • Arena/2011 The Seventh Degree Of Separation/05- Thief Of Souls.mp3 (8.9 MB)
  • Arena/2011 The Seventh Degree Of Separation/06- Close Your Eyes.mp3 (7.8 MB)
  • Arena/2011 The Seventh Degree Of Separation/07- Echoes Of The Fall.mp3 (5.6 MB)
  • Arena/2011 The Seventh Degree Of Separation/08- Bed Of Nails.mp3 (11 MB)
  • Arena/2011 The Seventh Degree Of Separation/09- What If.mp3 (11 MB)
  • Arena/2011 The Seventh Degree Of Separation/10- Trebuchet.mp3 (8.4 MB)
  • Arena/2011 The Seventh Degree Of Separation/11- Burning Down.mp3 (10 MB)
  • Arena/2011 The Seventh Degree Of Separation/12- Catching The Bullet.mp3 (18 MB)
  • Arena/2011 The Seventh Degree Of Separation/13- The Tinder Box.mp3 (10 MB)

Comments:


Add report or comment (250 words maximum)

I'd like:  
Type text from captcha: